  0
SECTION
  2
HEADER
  9
$ACADVER
  1
AC1009
  9
$INSBASE
 10
0.0
 20
0.0
 30
0.0
  9
$EXTMIN
 10
-38.31536
 20
-43.249863
 30
0.0
  9
$EXTMAX
 10
35.803704
 20
47.155498
 30
0.0
  9
$LIMMIN
 10
-24.0
 20
-24.0
  9
$LIMMAX
 10
24.0
 20
24.0
  9
$ORTHOMODE
 70
     0
  9
$REGENMODE
 70
     1
  9
$FILLMODE
 70
     1
  9
$QTEXTMODE
 70
     0
  9
$MIRRTEXT
 70
     1
  9
$DRAGMODE
 70
     2
  9
$LTSCALE
 40
1.0
  9
$OSMODE
 70
     7
  9
$ATTMODE
 70
     1
  9
$TEXTSIZE
 40
0.2
  9
$TRACEWID
 40
0.05
  9
$TEXTSTYLE
  7
STANDARD
  9
$CLAYER
  8
2
  9
$CELTYPE
  6
BYLAYER
  9
$CECOLOR
 62
   256
  9
$DIMSCALE
 40
1.0
  9
$DIMASZ
 40
0.18
  9
$DIMEXO
 40
0.0625
  9
$DIMDLI
 40
0.38
  9
$DIMRND
 40
0.0
  9
$DIMDLE
 40
0.0
  9
$DIMEXE
 40
0.18
  9
$DIMTP
 40
0.0
  9
$DIMTM
 40
0.0
  9
$DIMTXT
 40
0.18
  9
$DIMCEN
 40
0.09
  9
$DIMTSZ
 40
0.0
  9
$DIMTOL
 70
     0
  9
$DIMLIM
 70
     0
  9
$DIMTIH
 70
     1
  9
$DIMTOH
 70
     1
  9
$DIMSE1
 70
     0
  9
$DIMSE2
 70
     0
  9
$DIMTAD
 70
     0
  9
$DIMZIN
 70
     0
  9
$DIMBLK
  1

  9
$DIMASO
 70
     1
  9
$DIMSHO
 70
     0
  9
$DIMPOST
  1

  9
$DIMAPOST
  1

  9
$DIMALT
 70
     0
  9
$DIMALTD
 70
     2
  9
$DIMALTF
 40
25.4
  9
$DIMLFAC
 40
1.0
  9
$DIMTOFL
 70
     0
  9
$DIMTVP
 40
0.0
  9
$DIMTIX
 70
     0
  9
$DIMSOXD
 70
     0
  9
$DIMSAH
 70
     0
  9
$DIMBLK1
  1

  9
$DIMBLK2
  1

  9
$DIMSTYLE
  2
STANDARD
  9
$DIMCLRD
 70
     0
  9
$DIMCLRE
 70
     0
  9
$DIMCLRT
 70
     0
  9
$DIMTFAC
 40
1.0
  9
$DIMGAP
 40
0.09
  9
$LUNITS
 70
     2
  9
$LUPREC
 70
     4
  9
$SKETCHINC
 40
0.1
  9
$FILLETRAD
 40
0.0
  9
$AUNITS
 70
     0
  9
$AUPREC
 70
     0
  9
$MENU
  1
.
  9
$ELEVATION
 40
0.0
  9
$PELEVATION
 40
0.0
  9
$THICKNESS
 40
0.0
  9
$LIMCHECK
 70
     0
  9
$BLIPMODE
 70
     1
  9
$CHAMFERA
 40
0.0
  9
$CHAMFERB
 40
0.0
  9
$SKPOLY
 70
     0
  9
$TDCREATE
 40
2448564.599158
  9
$TDUPDATE
 40
2452955.702359
  9
$TDINDWG
 40
0.01264
  9
$TDUSRTIMER
 40
0.01264
  9
$USRTIMER
 70
     1
  9
$ANGBASE
 50
0.0
  9
$ANGDIR
 70
     0
  9
$PDMODE
 70
     0
  9
$PDSIZE
 40
0.0
  9
$PLINEWID
 40
0.0
  9
$COORDS
 70
     0
  9
$SPLFRAME
 70
     0
  9
$SPLINETYPE
 70
     6
  9
$SPLINESEGS
 70
     8
  9
$ATTDIA
 70
     0
  9
$ATTREQ
 70
     1
  9
$HANDLING
 70
     1
  9
$HANDSEED
  5
B3D
  9
$SURFTAB1
 70
     6
  9
$SURFTAB2
 70
     6
  9
$SURFTYPE
 70
     6
  9
$SURFU
 70
     6
  9
$SURFV
 70
     6
  9
$UCSNAME
  2

  9
$UCSORG
 10
0.0
 20
0.0
 30
0.0
  9
$UCSXDIR
 10
1.0
 20
0.0
 30
0.0
  9
$UCSYDIR
 10
0.0
 20
1.0
 30
0.0
  9
$PUCSNAME
  2

  9
$PUCSORG
 10
0.0
 20
0.0
 30
0.0
  9
$PUCSXDIR
 10
1.0
 20
0.0
 30
0.0
  9
$PUCSYDIR
 10
0.0
 20
1.0
 30
0.0
  9
$USERI1
 70
     0
  9
$USERI2
 70
     0
  9
$USERI3
 70
     0
  9
$USERI4
 70
     0
  9
$USERI5
 70
     0
  9
$USERR1
 40
0.0
  9
$USERR2
 40
0.0
  9
$USERR3
 40
0.0
  9
$USERR4
 40
0.0
  9
$USERR5
 40
0.0
  9
$WORLDVIEW
 70
     1
  9
$SHADEDGE
 70
     3
  9
$SHADEDIF
 70
    70
  9
$TILEMODE
 70
     1
  9
$MAXACTVP
 70
    48
  9
$PLIMCHECK
 70
     0
  9
$PEXTMIN
 10
1.000000E+020
 20
1.000000E+020
 30
1.000000E+020
  9
$PEXTMAX
 10
-1.000000E+020
 20
-1.000000E+020
 30
-1.000000E+020
  9
$PLIMMIN
 10
0.0
 20
0.0
  9
$PLIMMAX
 10
12.0
 20
9.0
  9
$UNITMODE
 70
     0
  9
$VISRETAIN
 70
     1
  9
$PLINEGEN
 70
     0
  9
$PSLTSCALE
 70
     1
  0
ENDSEC
  0
SECTION
  2
TABLES
  0
TABLE
  2
VPORT
 70
     5
  0
VPORT
  2
*ACTIVE
 70
     0
 10
0.0
 20
0.0
 11
1.0
 21
1.0
 12
-1.255828
 22
1.952817
 13
0.0
 23
0.0
 14
1.0
 24
1.0
 15
0.0
 25
0.0
 16
0.0
 26
0.0
 36
1.0
 17
0.0
 27
0.0
 37
0.0
 40
91.085953
 41
1.434673
 42
50.0
 43
0.0
 44
0.0
 50
0.0
 51
0.0
 71
     0
 72
   100
 73
     1
 74
     1
 75
     0
 76
     0
 77
     0
 78
     0
  0
ENDTAB
  0
TABLE
  2
LTYPE
 70
     1
  0
LTYPE
  2
CONTINUOUS
 70
     0
  3
Solid line
 72
    65
 73
     0
 40
0.0
  0
ENDTAB
  0
TABLE
  2
LAYER
 70
    32
  0
LAYER
  2
0
 70
     4
 62
     4
  6
CONTINUOUS
  0
LAYER
  2
1
 70
     4
 62
     1
  6
CONTINUOUS
  0
LAYER
  2
2
 70
     0
 62
     5
  6
CONTINUOUS
  0
LAYER
  2
DEFPOINTS
 70
     4
 62
    -7
  6
CONTINUOUS
  0
ENDTAB
  0
TABLE
  2
STYLE
 70
     1
  0
STYLE
  2
STANDARD
 70
     0
 40
0.4
 41
1.0
 50
0.0
 71
     0
 42
0.2
  3
txt.shx
  4
bigfont.shx
  0
ENDTAB
  0
TABLE
  2
VIEW
 70
     0
  0
ENDTAB
  0
TABLE
  2
UCS
 70
     0
  0
ENDTAB
  0
TABLE
  2
APPID
 70
     1
  0
APPID
  2
ACAD
 70
     0
  0
ENDTAB
  0
TABLE
  2
DIMSTYLE
 70
     1
  0
DIMSTYLE
  2
STANDARD
 70
     0
  3

  4

  5

  6

  7

 40
1.0
 41
0.18
 42
0.0625
 43
0.38
 44
0.18
 45
0.0
 46
0.0
 47
0.0
 48
0.0
140
0.18
141
0.09
142
0.0
143
25.4
144
1.0
145
0.0
146
1.0
147
0.09
 71
     0
 72
     0
 73
     1
 74
     1
 75
     0
 76
     0
 77
     0
 78
     0
170
     0
171
     2
172
     0
173
     0
174
     0
175
     0
176
     0
177
     0
178
     0
  0
ENDTAB
  0
ENDSEC
  0
SECTION
  2
BLOCKS
  0
BLOCK
  8
0
  2
$MODEL_SPACE
 70
     0
 10
0.0
 20
0.0
 30
0.0
  3
$MODEL_SPACE
  1

  0
ENDBLK
  5
1A
  8
0
  0
BLOCK
 67
     1
  8
0
  2
$PAPER_SPACE
 70
     0
 10
0.0
 20
0.0
 30
0.0
  3
$PAPER_SPACE
  1

  0
ENDBLK
  5
17
 67
     1
  8
0
  0
BLOCK
  8
0
  2
*D0
 70
     1
 10
0.0
 20
0.0
 30
0.0
  3
*D0
  1

  0
LINE
  5
880
  8
0
  6
BYBLOCK
 62
     0
 10
20.370344
 20
-19.10869
 30
0.0
 11
22.814928
 21
-19.10869
 31
0.0
  0
LINE
  5
881
  8
0
  6
BYBLOCK
 62
     0
 10
20.370344
 20
-39.108696
 30
0.0
 11
22.814928
 21
-39.108696
 31
0.0
  0
LINE
  5
882
  8
0
  6
BYBLOCK
 62
     0
 10
22.634928
 20
-19.28869
 30
0.0
 11
22.634928
 21
-28.928693
 31
0.0
  0
LINE
  5
883
  8
0
  6
BYBLOCK
 62
     0
 10
22.634928
 20
-38.928696
 30
0.0
 11
22.634928
 21
-29.288693
 31
0.0
  0
SOLID
  5
884
  8
0
  6
BYBLOCK
 62
     0
 10
22.604928
 20
-19.28869
 30
0.0
 11
22.664928
 21
-19.28869
 31
0.0
 12
22.634928
 22
-19.10869
 32
0.0
 13
22.634928
 23
-19.10869
 33
0.0
  0
SOLID
  5
885
  8
0
  6
BYBLOCK
 62
     0
 10
22.604928
 20
-38.928696
 30
0.0
 11
22.664928
 21
-38.928696
 31
0.0
 12
22.634928
 22
-39.108696
 32
0.0
 13
22.634928
 23
-39.108696
 33
0.0
  0
TEXT
  8
0
  40
0.18
  5
B10
  62
0
  72
0
  71
0
 10
22.2749
 20
-29.4273
 30
0.000000
  1
20.0000
  0
POINT
  5
888
  8
DEFPOINTS
  6
BYBLOCK
 62
     0
 10
20.307844
 20
-19.10869
 30
0.0
  0
POINT
  5
889
  8
DEFPOINTS
  6
BYBLOCK
 62
     0
 10
20.307844
 20
-39.108696
 30
0.0
  0
POINT
  5
88A
  8
DEFPOINTS
  6
BYBLOCK
 62
     0
 10
22.634928
 20
-39.108696
 30
0.0
  0
ENDBLK
  5
88B
  8
0
  0
BLOCK
  8
0
  2
*D1
 70
     1
 10
0.0
 20
0.0
 30
0.0
  3
*D1
  1

  0
LINE
  5
891
  8
0
  6
BYBLOCK
 62
     0
 10
20.370344
 20
-19.10869
 30
0.0
 11
24.414389
 21
-19.10869
 31
0.0
  0
LINE
  5
892
  8
0
  6
BYBLOCK
 62
     0
 10
20.370344
 20
-39.108696
 30
0.0
 11
24.414389
 21
-39.108696
 31
0.0
  0
LINE
  5
893
  8
0
  6
BYBLOCK
 62
     0
 10
24.234389
 20
-19.28869
 30
0.0
 11
24.234389
 21
-28.818693
 31
0.0
  0
LINE
  5
894
  8
0
  6
BYBLOCK
 62
     0
 10
24.234389
 20
-38.928696
 30
0.0
 11
24.234389
 21
-29.398693
 31
0.0
  0
SOLID
  5
895
  8
0
  6
BYBLOCK
 62
     0
 10
24.204389
 20
-19.28869
 30
0.0
 11
24.264389
 21
-19.28869
 31
0.0
 12
24.234389
 22
-19.10869
 32
0.0
 13
24.234389
 23
-19.10869
 33
0.0
  0
SOLID
  5
896
  8
0
  6
BYBLOCK
 62
     0
 10
24.204389
 20
-38.928696
 30
0.0
 11
24.264389
 21
-38.928696
 31
0.0
 12
24.234389
 22
-39.108696
 32
0.0
 13
24.234389
 23
-39.108696
 33
0.0
  0
TEXT
  8
0
  40
0.4
  5
B11
  62
0
  72
0
  71
0
 10
23.4344
 20
-29.8167
 30
0.000000
  1
20.0000
  0
POINT
  5
898
  8
DEFPOINTS
  6
BYBLOCK
 62
     0
 10
20.307844
 20
-19.10869
 30
0.0
  0
POINT
  5
899
  8
DEFPOINTS
  6
BYBLOCK
 62
     0
 10
20.307844
 20
-39.108696
 30
0.0
  0
POINT
  5
89A
  8
DEFPOINTS
  6
BYBLOCK
 62
     0
 10
24.234389
 20
-39.108696
 30
0.0
  0
ENDBLK
  5
89B
  8
0
  0
BLOCK
  8
0
  2
*D2
 70
     1
 10
0.0
 20
0.0
 30
0.0
  3
*D2
  1

  0
LINE
  5
89F
  8
0
  6
BYBLOCK
 62
     0
 10
-3.692155
 20
-39.171196
 30
0.0
 11
-3.692155
 21
-43.224977
 31
0.0
  0
LINE
  5
8A0
  8
0
  6
BYBLOCK
 62
     0
 10
20.307844
 20
-39.171196
 30
0.0
 11
20.307844
 21
-43.224977
 31
0.0
  0
LINE
  5
8A1
  8
0
  6
BYBLOCK
 62
     0
 10
-3.512155
 20
-43.044977
 30
0.0
 11
7.151178
 21
-43.044977
 31
0.0
  0
LINE
  5
8A2
  8
0
  6
BYBLOCK
 62
     0
 10
20.127844
 20
-43.044977
 30
0.0
 11
9.464511
 21
-43.044977
 31
0.0
  0
SOLID
  5
8A3
  8
0
  6
BYBLOCK
 62
     0
 10
-3.512155
 20
-43.014977
 30
0.0
 11
-3.512155
 21
-43.074977
 31
0.0
 12
-3.692155
 22
-43.044977
 32
0.0
 13
-3.692155
 23
-43.044977
 33
0.0
  0
SOLID
  5
8A4
  8
0
  6
BYBLOCK
 62
     0
 10
20.127844
 20
-43.014977
 30
0.0
 11
20.127844
 21
-43.074977
 31
0.0
 12
20.307844
 22
-43.044977
 32
0.0
 13
20.307844
 23
-43.044977
 33
0.0
  0
TEXT
  8
0
  40
0.4
  5
B12
  62
0
  72
0
  71
0
 10
7.50785
 20
-43.7530
 30
0.000000
  1
24.0000
  0
POINT
  5
8A6
  8
DEFPOINTS
  6
BYBLOCK
 62
     0
 10
-3.692155
 20
-39.108696
 30
0.0
  0
POINT
  5
8A7
  8
DEFPOINTS
  6
BYBLOCK
 62
     0
 10
20.307844
 20
-39.108696
 30
0.0
  0
POINT
  5
8A8
  8
DEFPOINTS
  6
BYBLOCK
 62
     0
 10
20.307844
 20
-43.044977
 30
0.0
  0
ENDBLK
  5
8A9
  8
0
  0
BLOCK
  8
0
  2
*D3
 70
     1
 10
0.0
 20
0.0
 30
0.0
  3
*D3
  1

  0
LINE
  5
8AD
  8
0
  6
BYBLOCK
 62
     0
 10
-22.793446
 20
40.042042
 30
0.0
 11
-31.422064
 21
40.042042
 31
0.0
  0
LINE
  5
8AE
  8
0
  6
BYBLOCK
 62
     0
 10
-23.793446
 20
39.042042
 30
0.0
 11
-31.422064
 21
39.042042
 31
0.0
  0
LINE
  5
8AF
  8
0
  6
BYBLOCK
 62
     0
 10
-31.242064
 20
40.222042
 30
0.0
 11
-31.242064
 21
40.402042
 31
0.0
  0
LINE
  5
8B0
  8
0
  6
BYBLOCK
 62
     0
 10
-31.242064
 20
38.862042
 30
0.0
 11
-31.242064
 21
38.682042
 31
0.0
  0
SOLID
  5
8B1
  8
0
  6
BYBLOCK
 62
     0
 10
-31.272064
 20
40.222042
 30
0.0
 11
-31.212064
 21
40.222042
 31
0.0
 12
-31.242064
 22
40.042042
 32
0.0
 13
-31.242064
 23
40.042042
 33
0.0
  0
SOLID
  5
8B2
  8
0
  6
BYBLOCK
 62
     0
 10
-31.272064
 20
38.862042
 30
0.0
 11
-31.212064
 21
38.862042
 31
0.0
 12
-31.242064
 22
39.042042
 32
0.0
 13
-31.242064
 23
39.042042
 33
0.0
  0
TEXT
  8
0
  40
0.4
  5
B13
  62
0
  72
0
  71
0
 10
-32.0421
 20
38.8340
 30
0.000000
  1
1.0000
  0
POINT
  5
8B4
  8
DEFPOINTS
  6
BYBLOCK
 62
     0
 10
-22.730946
 20
40.042042
 30
0.0
  0
POINT
  5
8B5
  8
DEFPOINTS
  6
BYBLOCK
 62
     0
 10
-23.730946
 20
39.042042
 30
0.0
  0
POINT
  5
8B6
  8
DEFPOINTS
  6
BYBLOCK
 62
     0
 10
-31.242064
 20
39.042042
 30
0.0
  0
ENDBLK
  5
8B7
  8
0
  0
BLOCK
  8
0
  2
*D4
 70
     1
 10
0.0
 20
0.0
 30
0.0
  3
*D4
  1

  0
LINE
  5
8C8
  8
0
  6
BYBLOCK
 62
     0
 10
-23.793446
 20
39.042042
 30
0.0
 11
-33.231261
 21
39.042042
 31
0.0
  0
LINE
  5
8C9
  8
0
  6
BYBLOCK
 62
     0
 10
-23.793446
 20
27.692154
 30
0.0
 11
-33.231261
 21
27.692154
 31
0.0
  0
LINE
  5
8CA
  8
0
  6
BYBLOCK
 62
     0
 10
-33.051261
 20
38.862042
 30
0.0
 11
-33.051261
 21
33.657098
 31
0.0
  0
LINE
  5
8CB
  8
0
  6
BYBLOCK
 62
     0
 10
-33.051261
 20
27.872154
 30
0.0
 11
-33.051261
 21
33.077098
 31
0.0
  0
SOLID
  5
8CC
  8
0
  6
BYBLOCK
 62
     0
 10
-33.081261
 20
38.862042
 30
0.0
 11
-33.021261
 21
38.862042
 31
0.0
 12
-33.051261
 22
39.042042
 32
0.0
 13
-33.051261
 23
39.042042
 33
0.0
  0
SOLID
  5
8CD
  8
0
  6
BYBLOCK
 62
     0
 10
-33.081261
 20
27.872154
 30
0.0
 11
-33.021261
 21
27.872154
 31
0.0
 12
-33.051261
 22
27.692154
 32
0.0
 13
-33.051261
 23
27.692154
 33
0.0
  0
TEXT
  8
0
  40
0.4
  5
B14
  62
0
  72
0
  71
0
 10
-33.8513
 20
32.6591
 30
0.000000
  1
11.35
  0
POINT
  5
8CF
  8
DEFPOINTS
  6
BYBLOCK
 62
     0
 10
-23.730946
 20
39.042042
 30
0.0
  0
POINT
  5
8D0
  8
DEFPOINTS
  6
BYBLOCK
 62
     0
 10
-23.730946
 20
27.692154
 30
0.0
  0
POINT
  5
8D1
  8
DEFPOINTS
  6
BYBLOCK
 62
     0
 10
-33.051261
 20
27.692154
 30
0.0
  0
ENDBLK
  5
8D2
  8
0
  0
BLOCK
  8
0
  2
*D5
 70
     1
 10
0.0
 20
0.0
 30
0.0
  3
*D5
  1

  0
LINE
  5
8D5
  8
0
  6
BYBLOCK
 62
     0
 10
-16.084864
 20
27.718991
 30
0.0
 11
-15.127221
 21
24.379291
 31
0.0
  0
LINE
  5
8D6
  8
0
  6
BYBLOCK
 62
     0
 10
-13.681709
 20
28.408084
 30
0.0
 11
-12.724066
 21
25.068384
 31
0.0
  0
LINE
  5
8D7
  8
0
  6
BYBLOCK
 62
     0
 10
-15.349863
 20
24.502703
 30
0.0
 11
-15.52289
 21
24.453088
 31
0.0
  0
LINE
  5
8D8
  8
0
  6
BYBLOCK
 62
     0
 10
-12.600653
 20
25.291025
 30
0.0
 11
-12.427626
 21
25.34064
 31
0.0
  0
SOLID
  5
8D9
  8
0
  6
BYBLOCK
 62
     0
 10
-15.358132
 20
24.531541
 30
0.0
 11
-15.341593
 21
24.473865
 31
0.0
 12
-15.176835
 22
24.552318
 32
0.0
 13
-15.176835
 23
24.552318
 33
0.0
  0
SOLID
  5
8DA
  8
0
  6
BYBLOCK
 62
     0
 10
-12.608922
 20
25.319863
 30
0.0
 11
-12.592384
 21
25.262187
 31
0.0
 12
-12.77368
 22
25.241411
 32
0.0
 13
-12.77368
 23
25.241411
 33
0.0
  0
TEXT
  8
0
  40
0.4
  5
B15
  62
0
  72
0
  71
0
 10
-14.7753
 20
24.1889
 30
0.000000
  1
2.5000
  0
POINT
  5
8DC
  8
DEFPOINTS
  6
BYBLOCK
 62
     0
 10
-16.102091
 20
27.77907
 30
0.0
  0
POINT
  5
8DD
  8
DEFPOINTS
  6
BYBLOCK
 62
     0
 10
-13.698936
 20
28.468163
 30
0.0
  0
POINT
  5
8DE
  8
DEFPOINTS
  6
BYBLOCK
 62
     0
 10
-12.77368
 20
25.241411
 30
0.0
  0
ENDBLK
  5
8DF
  8
0
  0
BLOCK
  8
0
  2
*D6
 70
     1
 10
0.0
 20
0.0
 30
0.0
  3
*D6
  1

  0
LINE
  5
8E3
  8
0
  6
BYBLOCK
 62
     0
 10
-23.730946
 20
27.629654
 30
0.0
 11
-23.730946
 21
23.542759
 31
0.0
  0
LINE
  5
8E4
  8
0
  6
BYBLOCK
 62
     0
 10
-16.730947
 20
27.629654
 30
0.0
 11
-16.730947
 21
23.542759
 31
0.0
  0
LINE
  5
8E5
  8
0
  6
BYBLOCK
 62
     0
 10
-23.550946
 20
23.722759
 30
0.0
 11
-21.187613
 21
23.722759
 31
0.0
  0
LINE
  5
8E6
  8
0
  6
BYBLOCK
 62
     0
 10
-16.910947
 20
23.722759
 30
0.0
 11
-19.27428
 21
23.722759
 31
0.0
  0
SOLID
  5
8E7
  8
0
  6
BYBLOCK
 62
     0
 10
-23.550946
 20
23.752759
 30
0.0
 11
-23.550946
 21
23.692759
 31
0.0
 12
-23.730946
 22
23.722759
 32
0.0
 13
-23.730946
 23
23.722759
 33
0.0
  0
SOLID
  5
8E8
  8
0
  6
BYBLOCK
 62
     0
 10
-16.910947
 20
23.752759
 30
0.0
 11
-16.910947
 21
23.692759
 31
0.0
 12
-16.730947
 22
23.722759
 32
0.0
 13
-16.730947
 23
23.722759
 33
0.0
  0
TEXT
  8
0
  40
0.4
  5
B16
  62
0
  72
0
  71
0
 10
-21.0309
 20
23.0148
 30
0.000000
  1
7.0000
  0
POINT
  5
8EA
  8
DEFPOINTS
  6
BYBLOCK
 62
     0
 10
-23.730946
 20
27.692154
 30
0.0
  0
POINT
  5
8EB
  8
DEFPOINTS
  6
BYBLOCK
 62
     0
 10
-16.730947
 20
27.692154
 30
0.0
  0
POINT
  5
8EC
  8
DEFPOINTS
  6
BYBLOCK
 62
     0
 10
-16.730947
 20
23.722759
 30
0.0
  0
ENDBLK
  5
8ED
  8
0
  0
BLOCK
  8
0
  2
*D7
 70
     1
 10
0.0
 20
0.0
 30
0.0
  3
*D7
  1

  0
LINE
  5
8F1
  8
0
  6
BYBLOCK
 62
     0
 10
-27.741447
 20
28.683722
 30
0.0
 11
-28.740357
 21
25.200113
 31
0.0
  0
LINE
  5
8F2
  8
0
  6
BYBLOCK
 62
     0
 10
-23.730946
 20
29.909653
 30
0.0
 11
-23.730946
 21
24.496086
 31
0.0
  0
ARC
  5
8F3
  8
0
  6
BYBLOCK
 62
     0
 10
-23.730946
 20
42.669993
 30
0.0
 40
17.993907
 50
254.573144
 51
258.000676
  0
ARC
  5
8F4
  8
0
  6
BYBLOCK
 62
     0
 10
-23.730946
 20
42.669993
 30
0.0
 40
17.993907
 50
265.960383
 51
269.426846
  0
SOLID
  5
8F5
  8
0
  6
BYBLOCK
 62
     0
 10
-28.525594
 20
25.295512
 30
0.0
 11
-28.509344
 21
25.35327
 31
0.0
 12
-28.690742
 22
25.37314
 32
0.0
 13
-28.690742
 23
25.37314
 33
0.0
  0
SOLID
  5
8F6
  8
0
  6
BYBLOCK
 62
     0
 10
-23.910794
 20
24.706986
 30
0.0
 11
-23.911094
 21
24.646986
 31
0.0
 12
-23.730946
 22
24.676086
 32
0.0
 13
-23.730946
 23
24.676086
 33
0.0
  0
TEXT
  8
0
  40
0.4
  5
B17
  62
0
  72
0
  71
0
 10
-27.0352
 20
24.1432
 30
0.000000
  1
16.0000%%d
  0
POINT
  5
8F8
  8
DEFPOINTS
  6
BYBLOCK
 62
     0
 10
-27.061529
 20
24.987009
 30
0.0
  0
POINT
  5
8F9
  8
DEFPOINTS
  6
BYBLOCK
 62
     0
 10
-23.730946
 20
29.972153
 30
0.0
  0
POINT
  5
8FA
  8
DEFPOINTS
  6
BYBLOCK
 62
     0
 10
-27.72422
 20
28.743801
 30
0.0
  0
POINT
  5
8FB
  8
DEFPOINTS
  6
BYBLOCK
 62
     0
 10
-24.968363
 20
38.35461
 30
0.0
  0
POINT
  5
8FC
  8
DEFPOINTS
  6
BYBLOCK
 62
     0
 10
-23.730946
 20
39.042042
 30
0.0
  0
ENDBLK
  5
8FD
  8
0
  0
BLOCK
  8
0
  2
*D8
 70
     1
 10
0.0
 20
0.0
 30
0.0
  3
*D8
  1

  0
LINE
  5
901
  8
0
  6
BYBLOCK
 62
     0
 10
-12.754902
 20
28.80388
 30
0.0
 11
-16.453051
 21
41.700818
 31
0.0
  0
LINE
  5
902
  8
0
  6
BYBLOCK
 62
     0
 10
-13.716163
 20
28.528242
 30
0.0
 11
-17.414312
 21
41.42518
 31
0.0
  0
LINE
  5
903
  8
0
  6
BYBLOCK
 62
     0
 10
-16.576464
 20
41.478177
 30
0.0
 11
-17.19167
 21
41.301768
 31
0.0
  0
LINE
  5
904
  8
0
  6
BYBLOCK
 62
     0
 10
-17.364697
 20
41.252153
 30
0.0
 11
-17.537725
 21
41.202539
 31
0.0
  0
LINE
  5
905
  8
0
  6
BYBLOCK
 62
     0
 10
-17.537725
 20
41.202539
 30
0.0
 11
-17.717725
 21
41.202539
 31
0.0
  0
SOLID
  5
906
  8
0
  6
BYBLOCK
 62
     0
 10
-16.584733
 20
41.507014
 30
0.0
 11
-16.568194
 21
41.449339
 31
0.0
 12
-16.403436
 22
41.527791
 32
0.0
 13
-16.403436
 23
41.527791
 33
0.0
  0
SOLID
  5
907
  8
0
  6
BYBLOCK
 62
     0
 10
-17.19994
 20
41.330606
 30
0.0
 11
-17.183401
 21
41.27293
 31
0.0
 12
-17.364697
 22
41.252153
 32
0.0
 13
-17.364697
 23
41.252153
 33
0.0
  0
TEXT
  8
0
  40
0.4
  5
B18
  62
0
  72
0
  71
0
 10
-19.4077
 20
40.4945
 30
0.000000
  1
1.0000
  0
POINT
  5
909
  8
DEFPOINTS
  6
BYBLOCK
 62
     0
 10
-12.737675
 20
28.743801
 30
0.0
  0
POINT
  5
90A
  8
DEFPOINTS
  6
BYBLOCK
 62
     0
 10
-13.698936
 20
28.468163
 30
0.0
  0
POINT
  5
90B
  8
DEFPOINTS
  6
BYBLOCK
 62
     0
 10
-17.364697
 20
41.252153
 30
0.0
  0
ENDBLK
  5
90C
  8
0
  0
BLOCK
  8
0
  2
*D9
 70
     1
 10
0.0
 20
0.0
 30
0.0
  3
*D9
  1

  0
LINE
  5
910
  8
0
  6
BYBLOCK
 62
     0
 10
-13.681709
 20
28.408084
 30
0.0
 11
-13.052179
 21
26.212661
 31
0.0
  0
LINE
  5
911
  8
0
  6
BYBLOCK
 62
     0
 10
-12.720448
 20
28.683722
 30
0.0
 11
-12.090918
 21
26.488299
 31
0.0
  0
LINE
  5
912
  8
0
  6
BYBLOCK
 62
     0
 10
-12.928767
 20
26.435303
 30
0.0
 11
-12.31356
 21
26.611711
 31
0.0
  0
LINE
  5
913
  8
0
  6
BYBLOCK
 62
     0
 10
-12.140533
 20
26.661326
 30
0.0
 11
-11.967506
 21
26.710941
 31
0.0
  0
LINE
  5
914
  8
0
  6
BYBLOCK
 62
     0
 10
-11.967506
 20
26.710941
 30
0.0
 11
-11.787506
 21
26.710941
 31
0.0
  0
SOLID
  5
915
  8
0
  6
BYBLOCK
 62
     0
 10
-12.937036
 20
26.464141
 30
0.0
 11
-12.920498
 21
26.406465
 31
0.0
 12
-13.101794
 22
26.385688
 32
0.0
 13
-13.101794
 23
26.385688
 33
0.0
  0
SOLID
  5
916
  8
0
  6
BYBLOCK
 62
     0
 10
-12.321829
 20
26.640549
 30
0.0
 11
-12.305291
 21
26.582873
 31
0.0
 12
-12.140533
 22
26.661326
 32
0.0
 13
-12.140533
 23
26.661326
 33
0.0
  0
TEXT
  8
0
  40
0.4
  5
B19
  62
0
  72
0
  71
0
 10
-11.6975
 20
26.0029
 30
0.000000
  1
1.0000
  0
POINT
  5
918
  8
DEFPOINTS
  6
BYBLOCK
 62
     0
 10
-13.698936
 20
28.468163
 30
0.0
  0
POINT
  5
919
  8
DEFPOINTS
  6
BYBLOCK
 62
     0
 10
-12.737675
 20
28.743801
 30
0.0
  0
POINT
  5
91A
  8
DEFPOINTS
  6
BYBLOCK
 62
     0
 10
-12.140533
 20
26.661326
 30
0.0
  0
ENDBLK
  5
91B
  8
0
  0
BLOCK
  8
0
  2
*D10
 70
     1
 10
0.0
 20
0.0
 30
0.0
  3
*D10
  1

  0
LINE
  5
91F
  8
0
  6
BYBLOCK
 62
     0
 10
-25.186871
 20
19.561752
 30
0.0
 11
-33.896129
 21
19.561752
 31
0.0
  0
LINE
  5
920
  8
0
  6
BYBLOCK
 62
     0
 10
-25.186871
 20
18.561752
 30
0.0
 11
-33.896129
 21
18.561752
 31
0.0
  0
LINE
  5
921
  8
0
  6
BYBLOCK
 62
     0
 10
-33.716129
 20
19.741752
 30
0.0
 11
-33.716129
 21
19.921752
 31
0.0
  0
LINE
  5
922
  8
0
  6
BYBLOCK
 62
     0
 10
-33.716129
 20
18.381752
 30
0.0
 11
-33.716129
 21
18.201752
 31
0.0
  0
SOLID
  5
923
  8
0
  6
BYBLOCK
 62
     0
 10
-33.746129
 20
19.741752
 30
0.0
 11
-33.686129
 21
19.741752
 31
0.0
 12
-33.716129
 22
19.561752
 32
0.0
 13
-33.716129
 23
19.561752
 33
0.0
  0
SOLID
  5
924
  8
0
  6
BYBLOCK
 62
     0
 10
-33.746129
 20
18.381752
 30
0.0
 11
-33.686129
 21
18.381752
 31
0.0
 12
-33.716129
 22
18.561752
 32
0.0
 13
-33.716129
 23
18.561752
 33
0.0
  0
TEXT
  8
0
  40
0.4
  5
B1A
  62
0
  72
0
  71
0
 10
-34.5161
 20
18.3538
 30
0.000000
  1
1.0000
  0
POINT
  5
926
  8
DEFPOINTS
  6
BYBLOCK
 62
     0
 10
-25.124371
 20
19.561752
 30
0.0
  0
POINT
  5
927
  8
DEFPOINTS
  6
BYBLOCK
 62
     0
 10
-25.124371
 20
18.561752
 30
0.0
  0
POINT
  5
928
  8
DEFPOINTS
  6
BYBLOCK
 62
     0
 10
-33.716129
 20
18.561752
 30
0.0
  0
ENDBLK
  5
929
  8
0
  0
BLOCK
  8
0
  2
*D11
 70
     1
 10
0.0
 20
0.0
 30
0.0
  3
*D11
  1

  0
LINE
  5
92D
  8
0
  6
BYBLOCK
 62
     0
 10
-14.124371
 20
18.624252
 30
0.0
 11
-14.124371
 21
22.810907
 31
0.0
  0
LINE
  5
92E
  8
0
  6
BYBLOCK
 62
     0
 10
-13.124371
 20
18.624252
 30
0.0
 11
-13.124371
 21
22.810907
 31
0.0
  0
LINE
  5
92F
  8
0
  6
BYBLOCK
 62
     0
 10
-13.944371
 20
22.630907
 30
0.0
 11
-13.304371
 21
22.630907
 31
0.0
  0
LINE
  5
930
  8
0
  6
BYBLOCK
 62
     0
 10
-13.124371
 20
22.630907
 30
0.0
 11
-12.944371
 21
22.630907
 31
0.0
  0
SOLID
  5
931
  8
0
  6
BYBLOCK
 62
     0
 10
-13.944371
 20
22.660907
 30
0.0
 11
-13.944371
 21
22.600907
 31
0.0
 12
-14.124371
 22
22.630907
 32
0.0
 13
-14.124371
 23
22.630907
 33
0.0
  0
SOLID
  5
932
  8
0
  6
BYBLOCK
 62
     0
 10
-13.304371
 20
22.660907
 30
0.0
 11
-13.304371
 21
22.600907
 31
0.0
 12
-13.124371
 22
22.630907
 32
0.0
 13
-13.124371
 23
22.630907
 33
0.0
  0
TEXT
  8
0
  40
0.4
  5
B1B
  62
0
  72
0
  71
0
 10
-12.8544
 20
21.9229
 30
0.000000
  1
1.0000
  0
POINT
  5
934
  8
DEFPOINTS
  6
BYBLOCK
 62
     0
 10
-14.124371
 20
18.561752
 30
0.0
  0
POINT
  5
935
  8
DEFPOINTS
  6
BYBLOCK
 62
     0
 10
-13.124371
 20
18.561752
 30
0.0
  0
POINT
  5
936
  8
DEFPOINTS
  6
BYBLOCK
 62
     0
 10
-13.124371
 20
22.630907
 30
0.0
  0
ENDBLK
  5
937
  8
0
  0
BLOCK
  8
0
  2
*D12
 70
     1
 10
0.0
 20
0.0
 30
0.0
  3
*D12
  1

  0
LINE
  5
93B
  8
0
  6
BYBLOCK
 62
     0
 10
-14.061871
 20
18.624252
 30
0.0
 11
-7.90044
 21
18.624252
 31
0.0
  0
LINE
  5
93C
  8
0
  6
BYBLOCK
 62
     0
 10
-14.061871
 20
0.561752
 30
0.0
 11
-7.90044
 21
0.561752
 31
0.0
  0
LINE
  5
93D
  8
0
  6
BYBLOCK
 62
     0
 10
-8.08044
 20
18.444252
 30
0.0
 11
-8.08044
 21
9.883002
 31
0.0
  0
LINE
  5
93E
  8
0
  6
BYBLOCK
 62
     0
 10
-8.08044
 20
0.741752
 30
0.0
 11
-8.08044
 21
9.303002
 31
0.0
  0
SOLID
  5
93F
  8
0
  6
BYBLOCK
 62
     0
 10
-8.11044
 20
18.444252
 30
0.0
 11
-8.05044
 21
18.444252
 31
0.0
 12
-8.08044
 22
18.624252
 32
0.0
 13
-8.08044
 23
18.624252
 33
0.0
  0
SOLID
  5
940
  8
0
  6
BYBLOCK
 62
     0
 10
-8.11044
 20
0.741752
 30
0.0
 11
-8.05044
 21
0.741752
 31
0.0
 12
-8.08044
 22
0.561752
 32
0.0
 13
-8.08044
 23
0.561752
 33
0.0
  0
TEXT
  8
0
  40
0.4
  5
B1C
  62
0
  72
0
  71
0
 10
-8.88044
 20
8.88500
 30
0.000000
  1
18.0625
  0
POINT
  5
942
  8
DEFPOINTS
  6
BYBLOCK
 62
     0
 10
-14.124371
 20
18.624252
 30
0.0
  0
POINT
  5
943
  8
DEFPOINTS
  6
BYBLOCK
 62
     0
 10
-14.124371
 20
0.561752
 30
0.0
  0
POINT
  5
944
  8
DEFPOINTS
  6
BYBLOCK
 62
     0
 10
-8.08044
 20
0.561752
 30
0.0
  0
ENDBLK
  5
945
  8
0
  0
BLOCK
  8
0
  2
*D13
 70
     1
 10
0.0
 20
0.0
 30
0.0
  3
*D13
  1

  0
LINE
  5
949
  8
0
  6
BYBLOCK
 62
     0
 10
-14.061871
 20
19.561752
 30
0.0
 11
-4.558305
 21
19.561752
 31
0.0
  0
LINE
  5
94A
  8
0
  6
BYBLOCK
 62
     0
 10
-14.061871
 20
-0.438248
 30
0.0
 11
-4.558305
 21
-0.438248
 31
0.0
  0
LINE
  5
94B
  8
0
  6
BYBLOCK
 62
     0
 10
-4.738305
 20
19.381752
 30
0.0
 11
-4.738305
 21
9.851752
 31
0.0
  0
LINE
  5
94C
  8
0
  6
BYBLOCK
 62
     0
 10
-4.738305
 20
-0.258248
 30
0.0
 11
-4.738305
 21
9.271752
 31
0.0
  0
SOLID
  5
94D
  8
0
  6
BYBLOCK
 62
     0
 10
-4.768305
 20
19.381752
 30
0.0
 11
-4.708305
 21
19.381752
 31
0.0
 12
-4.738305
 22
19.561752
 32
0.0
 13
-4.738305
 23
19.561752
 33
0.0
  0
SOLID
  5
94E
  8
0
  6
BYBLOCK
 62
     0
 10
-4.768305
 20
-0.258248
 30
0.0
 11
-4.708305
 21
-0.258248
 31
0.0
 12
-4.738305
 22
-0.438248
 32
0.0
 13
-4.738305
 23
-0.438248
 33
0.0
  0
TEXT
  8
0
  40
0.4
  5
B1D
  62
0
  72
0
  71
0
 10
-5.53831
 20
8.85375
 30
0.000000
  1
20.0000
  0
POINT
  5
950
  8
DEFPOINTS
  6
BYBLOCK
 62
     0
 10
-14.124371
 20
19.561752
 30
0.0
  0
POINT
  5
951
  8
DEFPOINTS
  6
BYBLOCK
 62
     0
 10
-14.124371
 20
-0.438248
 30
0.0
  0
POINT
  5
952
  8
DEFPOINTS
  6
BYBLOCK
 62
     0
 10
-4.738305
 20
-0.438248
 30
0.0
  0
ENDBLK
  5
953
  8
0
  0
BLOCK
  8
0
  2
*D14
 70
     1
 10
0.0
 20
0.0
 30
0.0
  3
*D14
  1

  0
LINE
  5
957
  8
0
  6
BYBLOCK
 62
     0
 10
-14.061871
 20
18.561752
 30
0.0
 11
-8.166291
 21
18.561752
 31
0.0
  0
LINE
  5
958
  8
0
  6
BYBLOCK
 62
     0
 10
-14.061871
 20
0.561752
 30
0.0
 11
-8.166291
 21
0.561752
 31
0.0
  0
LINE
  5
959
  8
0
  6
BYBLOCK
 62
     0
 10
-8.346291
 20
18.381752
 30
0.0
 11
-8.346291
 21
9.851752
 31
0.0
  0
LINE
  5
95A
  8
0
  6
BYBLOCK
 62
     0
 10
-8.346291
 20
0.741752
 30
0.0
 11
-8.346291
 21
9.271752
 31
0.0
  0
SOLID
  5
95B
  8
0
  6
BYBLOCK
 62
     0
 10
-8.376291
 20
18.381752
 30
0.0
 11
-8.316291
 21
18.381752
 31
0.0
 12
-8.346291
 22
18.561752
 32
0.0
 13
-8.346291
 23
18.561752
 33
0.0
  0
SOLID
  5
95C
  8
0
  6
BYBLOCK
 62
     0
 10
-8.376291
 20
0.741752
 30
0.0
 11
-8.316291
 21
0.741752
 31
0.0
 12
-8.346291
 22
0.561752
 32
0.0
 13
-8.346291
 23
0.561752
 33
0.0
  0
TEXT
  8
0
  40
0.4
  5
B1E
  62
0
  72
0
  71
0
 10
-9.14629
 20
8.85375
 30
0.000000
  1
18.0000
  0
POINT
  5
95E
  8
DEFPOINTS
  6
BYBLOCK
 62
     0
 10
-14.124371
 20
18.561752
 30
0.0
  0
POINT
  5
95F
  8
DEFPOINTS
  6
BYBLOCK
 62
     0
 10
-14.124371
 20
0.561752
 30
0.0
  0
POINT
  5
960
  8
DEFPOINTS
  6
BYBLOCK
 62
     0
 10
-8.346291
 20
0.561752
 30
0.0
  0
ENDBLK
  5
961
  8
0
  0
BLOCK
  8
0
  2
*D15
 70
     1
 10
0.0
 20
0.0
 30
0.0
  3
*D15
  1

  0
LINE
  5
965
  8
0
  6
BYBLOCK
 62
     0
 10
-14.186875
 20
13.061754
 30
0.0
 11
-20.527592
 21
13.061754
 31
0.0
  0
LINE
  5
966
  8
0
  6
BYBLOCK
 62
     0
 10
-14.186871
 20
0.561752
 30
0.0
 11
-20.527592
 21
0.561752
 31
0.0
  0
LINE
  5
967
  8
0
  6
BYBLOCK
 62
     0
 10
-20.347592
 20
12.881754
 30
0.0
 11
-20.347592
 21
7.101753
 31
0.0
  0
LINE
  5
968
  8
0
  6
BYBLOCK
 62
     0
 10
-20.347592
 20
0.741752
 30
0.0
 11
-20.347592
 21
6.521753
 31
0.0
  0
SOLID
  5
969
  8
0
  6
BYBLOCK
 62
     0
 10
-20.377592
 20
12.881754
 30
0.0
 11
-20.317592
 21
12.881754
 31
0.0
 12
-20.347592
 22
13.061754
 32
0.0
 13
-20.347592
 23
13.061754
 33
0.0
  0
SOLID
  5
96A
  8
0
  6
BYBLOCK
 62
     0
 10
-20.377592
 20
0.741752
 30
0.0
 11
-20.317592
 21
0.741752
 31
0.0
 12
-20.347592
 22
0.561752
 32
0.0
 13
-20.347592
 23
0.561752
 33
0.0
  0
TEXT
  8
0
  40
0.4
  5
B1F
  62
0
  72
0
  71
0
 10
-21.1476
 20
6.10375
 30
0.000000
  1
12.5000
  0
POINT
  5
96C
  8
DEFPOINTS
  6
BYBLOCK
 62
     0
 10
-14.124375
 20
13.061754
 30
0.0
  0
POINT
  5
96D
  8
DEFPOINTS
  6
BYBLOCK
 62
     0
 10
-14.124371
 20
0.561752
 30
0.0
  0
POINT
  5
96E
  8
DEFPOINTS
  6
BYBLOCK
 62
     0
 10
-20.347592
 20
0.561752
 30
0.0
  0
ENDBLK
  5
96F
  8
0
  0
BLOCK
  8
0
  2
*D16
 70
     1
 10
0.0
 20
0.0
 30
0.0
  3
*D16
  1

  0
LINE
  5
973
  8
0
  6
BYBLOCK
 62
     0
 10
-20.167592
 20
14.924142
 30
0.0
 11
-20.347592
 21
14.924142
 31
0.0
  0
LINE
  5
974
  8
0
  6
BYBLOCK
 62
     0
 10
-20.347592
 20
14.924142
 30
0.0
 11
-28.494671
 21
17.362273
 31
0.0
  0
TEXT
  8
0
  40
0.4
  5
B20
  62
0
  72
0
  71
0
 10
-19.6776
 20
14.2161
 30
0.000000
  1
R15.0000
  0
SOLID
  5
976
  8
0
  6
BYBLOCK
 62
     0
 10
-28.313627
 20
17.339407
 30
0.0
 11
-28.330829
 21
17.281926
 31
0.0
 12
-28.494671
 22
17.362273
 32
0.0
 13
-28.494671
 23
17.362273
 33
0.0
  0
POINT
  5
977
  8
DEFPOINTS
  6
BYBLOCK
 62
     0
 10
-28.494671
 20
17.362273
 30
0.0
  0
POINT
  5
978
  8
DEFPOINTS
  6
BYBLOCK
 62
     0
 10
-14.124375
 20
13.061754
 30
0.0
  0
ENDBLK
  5
979
  8
0
  0
BLOCK
  8
0
  2
*D17
 70
     1
 10
0.0
 20
0.0
 30
0.0
  3
*D17
  1

  0
LINE
  5
97D
  8
0
  6
BYBLOCK
 62
     0
 10
-25.186871
 20
0.561752
 30
0.0
 11
-34.465811
 21
0.561752
 31
0.0
  0
LINE
  5
97E
  8
0
  6
BYBLOCK
 62
     0
 10
-25.186871
 20
-0.438248
 30
0.0
 11
-34.465811
 21
-0.438248
 31
0.0
  0
LINE
  5
97F
  8
0
  6
BYBLOCK
 62
     0
 10
-34.285811
 20
0.741752
 30
0.0
 11
-34.285811
 21
0.921752
 31
0.0
  0
LINE
  5
980
  8
0
  6
BYBLOCK
 62
     0
 10
-34.285811
 20
-0.618248
 30
0.0
 11
-34.285811
 21
-0.798248
 31
0.0
  0
SOLID
  5
981
  8
0
  6
BYBLOCK
 62
     0
 10
-34.315811
 20
0.741752
 30
0.0
 11
-34.255811
 21
0.741752
 31
0.0
 12
-34.285811
 22
0.561752
 32
0.0
 13
-34.285811
 23
0.561752
 33
0.0
  0
SOLID
  5
982
  8
0
  6
BYBLOCK
 62
     0
 10
-34.315811
 20
-0.618248
 30
0.0
 11
-34.255811
 21
-0.618248
 31
0.0
 12
-34.285811
 22
-0.438248
 32
0.0
 13
-34.285811
 23
-0.438248
 33
0.0
  0
TEXT
  8
0
  40
0.4
  5
B21
  62
0
  72
0
  71
0
 10
-35.0858
 20
-0.646248
 30
0.000000
  1
1.0000
  0
POINT
  5
984
  8
DEFPOINTS
  6
BYBLOCK
 62
     0
 10
-25.124371
 20
0.561752
 30
0.0
  0
POINT
  5
985
  8
DEFPOINTS
  6
BYBLOCK
 62
     0
 10
-25.124371
 20
-0.438248
 30
0.0
  0
POINT
  5
986
  8
DEFPOINTS
  6
BYBLOCK
 62
     0
 10
-34.285811
 20
-0.438248
 30
0.0
  0
ENDBLK
  5
987
  8
0
  0
BLOCK
  8
0
  2
*D18
 70
     1
 10
0.0
 20
0.0
 30
0.0
  3
*D18
  1

  0
LINE
  5
98B
  8
0
  6
BYBLOCK
 62
     0
 10
-25.124371
 20
-0.500748
 30
0.0
 11
-25.124371
 21
-2.954786
 31
0.0
  0
LINE
  5
98C
  8
0
  6
BYBLOCK
 62
     0
 10
-14.061871
 20
-0.500748
 30
0.0
 11
-14.061871
 21
-2.954786
 31
0.0
  0
LINE
  5
98D
  8
0
  6
BYBLOCK
 62
     0
 10
-24.944371
 20
-2.774786
 30
0.0
 11
-20.716454
 21
-2.774786
 31
0.0
  0
LINE
  5
98E
  8
0
  6
BYBLOCK
 62
     0
 10
-14.241871
 20
-2.774786
 30
0.0
 11
-18.469788
 21
-2.774786
 31
0.0
  0
SOLID
  5
98F
  8
0
  6
BYBLOCK
 62
     0
 10
-24.944371
 20
-2.744786
 30
0.0
 11
-24.944371
 21
-2.804786
 31
0.0
 12
-25.124371
 22
-2.774786
 32
0.0
 13
-25.124371
 23
-2.774786
 33
0.0
  0
SOLID
  5
990
  8
0
  6
BYBLOCK
 62
     0
 10
-14.241871
 20
-2.744786
 30
0.0
 11
-14.241871
 21
-2.804786
 31
0.0
 12
-14.061871
 22
-2.774786
 32
0.0
 13
-14.061871
 23
-2.774786
 33
0.0
  0
TEXT
  8
0
  40
0.4
  5
B22
  62
0
  72
0
  71
0
 10
-20.3931
 20
-3.48279
 30
0.000000
  1
11.0625
  0
POINT
  5
992
  8
DEFPOINTS
  6
BYBLOCK
 62
     0
 10
-25.124371
 20
-0.438248
 30
0.0
  0
POINT
  5
993
  8
DEFPOINTS
  6
BYBLOCK
 62
     0
 10
-14.061871
 20
-0.438248
 30
0.0
  0
POINT
  5
994
  8
DEFPOINTS
  6
BYBLOCK
 62
     0
 10
-14.061871
 20
-2.774786
 30
0.0
  0
ENDBLK
  5
995
  8
0
  0
BLOCK
  8
0
  2
*D19
 70
     1
 10
0.0
 20
0.0
 30
0.0
  3
*D19
  1

  0
LINE
  5
999
  8
0
  6
BYBLOCK
 62
     0
 10
-25.124371
 20
-0.500748
 30
0.0
 11
-25.124371
 21
-2.46125
 31
0.0
  0
LINE
  5
99A
  8
0
  6
BYBLOCK
 62
     0
 10
-14.124371
 20
-0.500748
 30
0.0
 11
-14.124371
 21
-2.46125
 31
0.0
  0
LINE
  5
99B
  8
0
  6
BYBLOCK
 62
     0
 10
-24.944371
 20
-2.28125
 30
0.0
 11
-20.647704
 21
-2.28125
 31
0.0
  0
LINE
  5
99C
  8
0
  6
BYBLOCK
 62
     0
 10
-14.304371
 20
-2.28125
 30
0.0
 11
-18.601038
 21
-2.28125
 31
0.0
  0
SOLID
  5
99D
  8
0
  6
BYBLOCK
 62
     0
 10
-24.944371
 20
-2.25125
 30
0.0
 11
-24.944371
 21
-2.31125
 31
0.0
 12
-25.124371
 22
-2.28125
 32
0.0
 13
-25.124371
 23
-2.28125
 33
0.0
  0
SOLID
  5
99E
  8
0
  6
BYBLOCK
 62
     0
 10
-14.304371
 20
-2.25125
 30
0.0
 11
-14.304371
 21
-2.31125
 31
0.0
 12
-14.124371
 22
-2.28125
 32
0.0
 13
-14.124371
 23
-2.28125
 33
0.0
  0
TEXT
  8
0
  40
0.4
  5
B23
  62
0
  72
0
  71
0
 10
-20.4244
 20
-2.98925
 30
0.000000
  1
11.0000
  0
POINT
  5
9A0
  8
DEFPOINTS
  6
BYBLOCK
 62
     0
 10
-25.124371
 20
-0.438248
 30
0.0
  0
POINT
  5
9A1
  8
DEFPOINTS
  6
BYBLOCK
 62
     0
 10
-14.124371
 20
-0.438248
 30
0.0
  0
POINT
  5
9A2
  8
DEFPOINTS
  6
BYBLOCK
 62
     0
 10
-14.124371
 20
-2.28125
 30
0.0
  0
ENDBLK
  5
9A3
  8
0
  0
BLOCK
  8
0
  2
*D20
 70
     1
 10
0.0
 20
0.0
 30
0.0
  3
*D20
  1

  0
LINE
  5
9A7
  8
0
  6
BYBLOCK
 62
     0
 10
-17.061329
 20
-8.252036
 30
0.0
 11
-17.061329
 21
-5.100814
 31
0.0
  0
LINE
  5
9A8
  8
0
  6
BYBLOCK
 62
     0
 10
-14.106042
 20
-8.252037
 30
0.0
 11
-14.106042
 21
-5.100814
 31
0.0
  0
LINE
  5
9A9
  8
0
  6
BYBLOCK
 62
     0
 10
-16.881329
 20
-5.280814
 30
0.0
 11
-16.673685
 21
-5.280814
 31
0.0
  0
LINE
  5
9AA
  8
0
  6
BYBLOCK
 62
     0
 10
-14.286042
 20
-5.280814
 30
0.0
 11
-14.493685
 21
-5.280814
 31
0.0
  0
SOLID
  5
9AB
  8
0
  6
BYBLOCK
 62
     0
 10
-16.881329
 20
-5.250814
 30
0.0
 11
-16.881329
 21
-5.310814
 31
0.0
 12
-17.061329
 22
-5.280814
 32
0.0
 13
-17.061329
 23
-5.280814
 33
0.0
  0
SOLID
  5
9AC
  8
0
  6
BYBLOCK
 62
     0
 10
-14.286042
 20
-5.250814
 30
0.0
 11
-14.286042
 21
-5.310814
 31
0.0
 12
-14.106042
 22
-5.280814
 32
0.0
 13
-14.106042
 23
-5.280814
 33
0.0
  0
TEXT
  8
0
  40
0.4
  5
B24
  62
0
  72
0
  71
0
 10
-16.3837
 20
-5.98881
 30
0.000000
  1
2.9553
  0
POINT
  5
9AE
  8
DEFPOINTS
  6
BYBLOCK
 62
     0
 10
-17.061329
 20
-8.314536
 30
0.0
  0
POINT
  5
9AF
  8
DEFPOINTS
  6
BYBLOCK
 62
     0
 10
-14.106042
 20
-8.314537
 30
0.0
  0
POINT
  5
9B0
  8
DEFPOINTS
  6
BYBLOCK
 62
     0
 10
-14.106042
 20
-5.280814
 30
0.0
  0
ENDBLK
  5
9B1
  8
0
  0
BLOCK
  8
0
  2
*D21
 70
     1
 10
0.0
 20
0.0
 30
0.0
  3
*D21
  1

  0
LINE
  5
9B5
  8
0
  6
BYBLOCK
 62
     0
 10
-28.123829
 20
-7.314536
 30
0.0
 11
-37.458688
 21
-7.314536
 31
0.0
  0
LINE
  5
9B6
  8
0
  6
BYBLOCK
 62
     0
 10
-28.123829
 20
-27.314535
 30
0.0
 11
-37.458688
 21
-27.314535
 31
0.0
  0
LINE
  5
9B7
  8
0
  6
BYBLOCK
 62
     0
 10
-37.278688
 20
-7.494536
 30
0.0
 11
-37.278688
 21
-17.024536
 31
0.0
  0
LINE
  5
9B8
  8
0
  6
BYBLOCK
 62
     0
 10
-37.278688
 20
-27.134535
 30
0.0
 11
-37.278688
 21
-17.604536
 31
0.0
  0
SOLID
  5
9B9
  8
0
  6
BYBLOCK
 62
     0
 10
-37.308688
 20
-7.494536
 30
0.0
 11
-37.248688
 21
-7.494536
 31
0.0
 12
-37.278688
 22
-7.314536
 32
0.0
 13
-37.278688
 23
-7.314536
 33
0.0
  0
SOLID
  5
9BA
  8
0
  6
BYBLOCK
 62
     0
 10
-37.308688
 20
-27.134535
 30
0.0
 11
-37.248688
 21
-27.134535
 31
0.0
 12
-37.278688
 22
-27.314535
 32
0.0
 13
-37.278688
 23
-27.314535
 33
0.0
  0
TEXT
  8
0
  40
0.4
  5
B25
  62
0
  72
0
  71
0
 10
-38.0787
 20
-18.0225
 30
0.000000
  1
20.0000
  0
POINT
  5
9BC
  8
DEFPOINTS
  6
BYBLOCK
 62
     0
 10
-28.061329
 20
-7.314536
 30
0.0
  0
POINT
  5
9BD
  8
DEFPOINTS
  6
BYBLOCK
 62
     0
 10
-28.061329
 20
-27.314535
 30
0.0
  0
POINT
  5
9BE
  8
DEFPOINTS
  6
BYBLOCK
 62
     0
 10
-37.278688
 20
-27.314535
 30
0.0
  0
ENDBLK
  5
9BF
  8
0
  0
BLOCK
  8
0
  2
*D22
 70
     1
 10
0.0
 20
0.0
 30
0.0
  3
*D22
  1

  0
LINE
  5
9C3
  8
0
  6
BYBLOCK
 62
     0
 10
-29.123829
 20
-8.314536
 30
0.0
 11
-34.280815
 21
-8.314536
 31
0.0
  0
LINE
  5
9C4
  8
0
  6
BYBLOCK
 62
     0
 10
-29.123829
 20
-26.314535
 30
0.0
 11
-34.280815
 21
-26.314535
 31
0.0
  0
LINE
  5
9C5
  8
0
  6
BYBLOCK
 62
     0
 10
-34.100815
 20
-8.494536
 30
0.0
 11
-34.100815
 21
-17.024536
 31
0.0
  0
LINE
  5
9C6
  8
0
  6
BYBLOCK
 62
     0
 10
-34.100815
 20
-26.134535
 30
0.0
 11
-34.100815
 21
-17.604536
 31
0.0
  0
SOLID
  5
9C7
  8
0
  6
BYBLOCK
 62
     0
 10
-34.130815
 20
-8.494536
 30
0.0
 11
-34.070815
 21
-8.494536
 31
0.0
 12
-34.100815
 22
-8.314536
 32
0.0
 13
-34.100815
 23
-8.314536
 33
0.0
  0
SOLID
  5
9C8
  8
0
  6
BYBLOCK
 62
     0
 10
-34.130815
 20
-26.134535
 30
0.0
 11
-34.070815
 21
-26.134535
 31
0.0
 12
-34.100815
 22
-26.314535
 32
0.0
 13
-34.100815
 23
-26.314535
 33
0.0
  0
TEXT
  8
0
  40
0.4
  5
B26
  62
0
  72
0
  71
0
 10
-34.9008
 20
-18.0225
 30
0.000000
  1
18.0000
  0
POINT
  5
9CA
  8
DEFPOINTS
  6
BYBLOCK
 62
     0
 10
-29.061329
 20
-8.314536
 30
0.0
  0
POINT
  5
9CB
  8
DEFPOINTS
  6
BYBLOCK
 62
     0
 10
-29.061329
 20
-26.314535
 30
0.0
  0
POINT
  5
9CC
  8
DEFPOINTS
  6
BYBLOCK
 62
     0
 10
-34.100815
 20
-26.314535
 30
0.0
  0
ENDBLK
  5
9CD
  8
0
  0
BLOCK
  8
0
  2
*D23
 70
     1
 10
0.0
 20
0.0
 30
0.0
  3
*D23
  1

  0
LINE
  5
9D1
  8
0
  6
BYBLOCK
 62
     0
 10
-29.061329
 20
-26.377035
 30
0.0
 11
-29.061329
 21
-32.65357
 31
0.0
  0
LINE
  5
9D2
  8
0
  6
BYBLOCK
 62
     0
 10
-28.061329
 20
-26.377035
 30
0.0
 11
-28.061329
 21
-32.65357
 31
0.0
  0
LINE
  5
9D3
  8
0
  6
BYBLOCK
 62
     0
 10
-28.881329
 20
-32.47357
 30
0.0
 11
-28.241329
 21
-32.47357
 31
0.0
  0
LINE
  5
9D4
  8
0
  6
BYBLOCK
 62
     0
 10
-28.061329
 20
-32.47357
 30
0.0
 11
-27.881329
 21
-32.47357
 31
0.0
  0
SOLID
  5
9D5
  8
0
  6
BYBLOCK
 62
     0
 10
-28.881329
 20
-32.44357
 30
0.0
 11
-28.881329
 21
-32.50357
 31
0.0
 12
-29.061329
 22
-32.47357
 32
0.0
 13
-29.061329
 23
-32.47357
 33
0.0
  0
SOLID
  5
9D6
  8
0
  6
BYBLOCK
 62
     0
 10
-28.241329
 20
-32.44357
 30
0.0
 11
-28.241329
 21
-32.50357
 31
0.0
 12
-28.061329
 22
-32.47357
 32
0.0
 13
-28.061329
 23
-32.47357
 33
0.0
  0
TEXT
  8
0
  40
0.4
  5
B27
  62
0
  72
0
  71
0
 10
-27.7913
 20
-33.1816
 30
0.000000
  1
1.0000
  0
POINT
  5
9D8
  8
DEFPOINTS
  6
BYBLOCK
 62
     0
 10
-29.061329
 20
-26.314535
 30
0.0
  0
POINT
  5
9D9
  8
DEFPOINTS
  6
BYBLOCK
 62
     0
 10
-28.061329
 20
-26.314535
 30
0.0
  0
POINT
  5
9DA
  8
DEFPOINTS
  6
BYBLOCK
 62
     0
 10
-28.061329
 20
-32.47357
 30
0.0
  0
ENDBLK
  5
9DB
  8
0
  0
BLOCK
  8
0
  2
*D24
 70
     1
 10
0.0
 20
0.0
 30
0.0
  3
*D24
  1

  0
LINE
  5
9DF
  8
0
  6
BYBLOCK
 62
     0
 10
-28.061329
 20
-27.377035
 30
0.0
 11
-28.061329
 21
-30.707863
 31
0.0
  0
LINE
  5
9E0
  8
0
  6
BYBLOCK
 62
     0
 10
-17.061329
 20
-27.377035
 30
0.0
 11
-17.061329
 21
-30.707863
 31
0.0
  0
LINE
  5
9E1
  8
0
  6
BYBLOCK
 62
     0
 10
-27.881329
 20
-30.527863
 30
0.0
 11
-23.584662
 21
-30.527863
 31
0.0
  0
LINE
  5
9E2
  8
0
  6
BYBLOCK
 62
     0
 10
-17.241329
 20
-30.527863
 30
0.0
 11
-21.537996
 21
-30.527863
 31
0.0
  0
SOLID
  5
9E3
  8
0
  6
BYBLOCK
 62
     0
 10
-27.881329
 20
-30.497863
 30
0.0
 11
-27.881329
 21
-30.557863
 31
0.0
 12
-28.061329
 22
-30.527863
 32
0.0
 13
-28.061329
 23
-30.527863
 33
0.0
  0
SOLID
  5
9E4
  8
0
  6
BYBLOCK
 62
     0
 10
-17.241329
 20
-30.497863
 30
0.0
 11
-17.241329
 21
-30.557863
 31
0.0
 12
-17.061329
 22
-30.527863
 32
0.0
 13
-17.061329
 23
-30.527863
 33
0.0
  0
TEXT
  8
0
  40
0.4
  5
B28
  62
0
  72
0
  71
0
 10
-23.3613
 20
-31.2359
 30
0.000000
  1
11.0000
  0
POINT
  5
9E6
  8
DEFPOINTS
  6
BYBLOCK
 62
     0
 10
-28.061329
 20
-27.314535
 30
0.0
  0
POINT
  5
9E7
  8
DEFPOINTS
  6
BYBLOCK
 62
     0
 10
-17.061329
 20
-27.314535
 30
0.0
  0
POINT
  5
9E8
  8
DEFPOINTS
  6
BYBLOCK
 62
     0
 10
-17.061329
 20
-30.527863
 30
0.0
  0
ENDBLK
  5
9E9
  8
0
  0
BLOCK
  8
0
  2
*D25
 70
     1
 10
0.0
 20
0.0
 30
0.0
  3
*D25
  1

  0
LINE
  5
9ED
  8
0
  6
BYBLOCK
 62
     0
 10
-17.061329
 20
-26.377035
 30
0.0
 11
-17.061329
 21
-32.812403
 31
0.0
  0
LINE
  5
9EE
  8
0
  6
BYBLOCK
 62
     0
 10
-13.061328
 20
-26.377035
 30
0.0
 11
-13.061328
 21
-32.812403
 31
0.0
  0
LINE
  5
9EF
  8
0
  6
BYBLOCK
 62
     0
 10
-16.881329
 20
-32.632403
 30
0.0
 11
-16.017995
 21
-32.632403
 31
0.0
  0
LINE
  5
9F0
  8
0
  6
BYBLOCK
 62
     0
 10
-13.241328
 20
-32.632403
 30
0.0
 11
-14.104662
 21
-32.632403
 31
0.0
  0
SOLID
  5
9F1
  8
0
  6
BYBLOCK
 62
     0
 10
-16.881329
 20
-32.602403
 30
0.0
 11
-16.881329
 21
-32.662403
 31
0.0
 12
-17.061329
 22
-32.632403
 32
0.0
 13
-17.061329
 23
-32.632403
 33
0.0
  0
SOLID
  5
9F2
  8
0
  6
BYBLOCK
 62
     0
 10
-13.241328
 20
-32.602403
 30
0.0
 11
-13.241328
 21
-32.662403
 31
0.0
 12
-13.061328
 22
-32.632403
 32
0.0
 13
-13.061328
 23
-32.632403
 33
0.0
  0
TEXT
  8
0
  40
0.4
  5
B29
  62
0
  72
0
  71
0
 10
-15.8613
 20
-33.3404
 30
0.000000
  1
4.0000
  0
POINT
  5
9F4
  8
DEFPOINTS
  6
BYBLOCK
 62
     0
 10
-17.061329
 20
-26.314535
 30
0.0
  0
POINT
  5
9F5
  8
DEFPOINTS
  6
BYBLOCK
 62
     0
 10
-13.061328
 20
-26.314535
 30
0.0
  0
POINT
  5
9F6
  8
DEFPOINTS
  6
BYBLOCK
 62
     0
 10
-13.061328
 20
-32.632403
 30
0.0
  0
ENDBLK
  5
9F7
  8
0
  0
BLOCK
  8
0
  2
*D26
 70
     1
 10
0.0
 20
0.0
 30
0.0
  3
*D26
  1

  0
LINE
  5
9FB
  8
0
  6
BYBLOCK
 62
     0
 10
-2.498419
 20
29.684187
 30
0.0
 11
-2.498419
 21
47.129617
 31
0.0
  0
LINE
  5
9FC
  8
0
  6
BYBLOCK
 62
     0
 10
25.412153
 20
29.684187
 30
0.0
 11
25.412153
 21
47.129617
 31
0.0
  0
LINE
  5
9FD
  8
0
  6
BYBLOCK
 62
     0
 10
-2.318419
 20
46.949617
 30
0.0
 11
10.266867
 21
46.949617
 31
0.0
  0
LINE
  5
9FE
  8
0
  6
BYBLOCK
 62
     0
 10
25.232153
 20
46.949617
 30
0.0
 11
12.646867
 21
46.949617
 31
0.0
  0
SOLID
  5
9FF
  8
0
  6
BYBLOCK
 62
     0
 10
-2.318419
 20
46.979617
 30
0.0
 11
-2.318419
 21
46.919617
 31
0.0
 12
-2.498419
 22
46.949617
 32
0.0
 13
-2.498419
 23
46.949617
 33
0.0
  0
SOLID
  5
A00
  8
0
  6
BYBLOCK
 62
     0
 10
25.232153
 20
46.979617
 30
0.0
 11
25.232153
 21
46.919617
 31
0.0
 12
25.412153
 22
46.949617
 32
0.0
 13
25.412153
 23
46.949617
 33
0.0
  0
TEXT
  8
0
  40
0.4
  5
B2A
  62
0
  72
0
  71
0
 10
10.6569
 20
46.2416
 30
0.000000
  1
27.9106
  0
POINT
  5
A02
  8
DEFPOINTS
  6
BYBLOCK
 62
     0
 10
-2.498419
 20
29.621687
 30
0.0
  0
POINT
  5
A03
  8
DEFPOINTS
  6
BYBLOCK
 62
     0
 10
25.412153
 20
29.621687
 30
0.0
  0
POINT
  5
A04
  8
DEFPOINTS
  6
BYBLOCK
 62
     0
 10
25.412153
 20
46.949617
 30
0.0
  0
ENDBLK
  5
A05
  8
0
  0
BLOCK
  8
0
  2
*D27
 70
     1
 10
0.0
 20
0.0
 30
0.0
  3
*D27
  1

  0
LINE
  5
A17
  8
0
  6
BYBLOCK
 62
     0
 10
22.519367
 20
29.621687
 30
0.0
 11
31.961937
 21
29.621687
 31
0.0
  0
LINE
  5
A18
  8
0
  6
BYBLOCK
 62
     0
 10
11.519367
 20
39.121689
 30
0.0
 11
31.961937
 21
39.121689
 31
0.0
  0
LINE
  5
A19
  8
0
  6
BYBLOCK
 62
     0
 10
31.781937
 20
29.801687
 30
0.0
 11
31.781937
 21
34.081688
 31
0.0
  0
LINE
  5
A1A
  8
0
  6
BYBLOCK
 62
     0
 10
31.781937
 20
38.941689
 30
0.0
 11
31.781937
 21
34.661688
 31
0.0
  0
SOLID
  5
A1B
  8
0
  6
BYBLOCK
 62
     0
 10
31.751937
 20
29.801687
 30
0.0
 11
31.811937
 21
29.801687
 31
0.0
 12
31.781937
 22
29.621687
 32
0.0
 13
31.781937
 23
29.621687
 33
0.0
  0
SOLID
  5
A1C
  8
0
  6
BYBLOCK
 62
     0
 10
31.751937
 20
38.941689
 30
0.0
 11
31.811937
 21
38.941689
 31
0.0
 12
31.781937
 22
39.121689
 32
0.0
 13
31.781937
 23
39.121689
 33
0.0
  0
TEXT
  8
0
  40
0.4
  5
B2B
  62
0
  72
0
  71
0
 10
30.9819
 20
33.6637
 30
0.000000
  1
9.5000
  0
POINT
  5
A1E
  8
DEFPOINTS
  6
BYBLOCK
 62
     0
 10
22.456867
 20
29.621687
 30
0.0
  0
POINT
  5
A1F
  8
DEFPOINTS
  6
BYBLOCK
 62
     0
 10
11.456867
 20
39.121689
 30
0.0
  0
POINT
  5
A20
  8
DEFPOINTS
  6
BYBLOCK
 62
     0
 10
31.781937
 20
39.121689
 30
0.0
  0
ENDBLK
  5
A21
  8
0
  0
BLOCK
  8
0
  2
*D28
 70
     1
 10
0.0
 20
0.0
 30
0.0
  3
*D28
  1

  0
LINE
  5
A25
  8
0
  6
BYBLOCK
 62
     0
 10
17.171067
 20
33.519087
 30
0.0
 11
17.351067
 21
33.519087
 31
0.0
  0
LINE
  5
A26
  8
0
  6
BYBLOCK
 62
     0
 10
17.351067
 20
33.519087
 30
0.0
 11
19.427092
 21
36.82899
 31
0.0
  0
TEXT
  8
0
  40
0.4
  5
B2C
  62
0
  72
0
  71
0
 10
15.0811
 20
32.8111
 30
0.000000
  1
R15.0000
  0
SOLID
  5
A28
  8
0
  6
BYBLOCK
 62
     0
 10
19.306035
 20
36.692443
 30
0.0
 11
19.356864
 21
36.660562
 31
0.0
 12
19.427092
 22
36.82899
 32
0.0
 13
19.427092
 23
36.82899
 33
0.0
  0
POINT
  5
A29
  8
DEFPOINTS
  6
BYBLOCK
 62
     0
 10
19.427092
 20
36.82899
 30
0.0
  0
POINT
  5
A2A
  8
DEFPOINTS
  6
BYBLOCK
 62
     0
 10
11.456867
 20
24.12169
 30
0.0
  0
ENDBLK
  5
A2B
  8
0
  0
BLOCK
  8
0
  2
*D29
 70
     1
 10
0.0
 20
0.0
 30
0.0
  3
*D29
  1

  0
LINE
  5
A2F
  8
0
  6
BYBLOCK
 62
     0
 10
0.456867
 20
29.684187
 30
0.0
 11
0.456867
 21
32.096267
 31
0.0
  0
LINE
  5
A30
  8
0
  6
BYBLOCK
 62
     0
 10
22.456867
 20
29.684187
 30
0.0
 11
22.456867
 21
32.096267
 31
0.0
  0
LINE
  5
A31
  8
0
  6
BYBLOCK
 62
     0
 10
0.636867
 20
31.916267
 30
0.0
 11
10.3002
 21
31.916267
 31
0.0
  0
LINE
  5
A32
  8
0
  6
BYBLOCK
 62
     0
 10
22.276867
 20
31.916267
 30
0.0
 11
12.613534
 21
31.916267
 31
0.0
  0
SOLID
  5
A33
  8
0
  6
BYBLOCK
 62
     0
 10
0.636867
 20
31.946267
 30
0.0
 11
0.636867
 21
31.886267
 31
0.0
 12
0.456867
 22
31.916267
 32
0.0
 13
0.456867
 23
31.916267
 33
0.0
  0
SOLID
  5
A34
  8
0
  6
BYBLOCK
 62
     0
 10
22.276867
 20
31.946267
 30
0.0
 11
22.276867
 21
31.886267
 31
0.0
 12
22.456867
 22
31.916267
 32
0.0
 13
22.456867
 23
31.916267
 33
0.0
  0
TEXT
  8
0
  40
0.4
  5
B2D
  62
0
  72
0
  71
0
 10
10.6569
 20
31.2083
 30
0.000000
  1
22.0000
  0
POINT
  5
A36
  8
DEFPOINTS
  6
BYBLOCK
 62
     0
 10
0.456867
 20
29.621687
 30
0.0
  0
POINT
  5
A37
  8
DEFPOINTS
  6
BYBLOCK
 62
     0
 10
22.456867
 20
29.621687
 30
0.0
  0
POINT
  5
A38
  8
DEFPOINTS
  6
BYBLOCK
 62
     0
 10
22.456867
 20
31.916267
 30
0.0
  0
ENDBLK
  5
A39
  8
0
  0
BLOCK
  8
0
  2
*D30
 70
     1
 10
0.0
 20
0.0
 30
0.0
  3
*D30
  1

  0
LINE
  5
A3D
  8
0
  6
BYBLOCK
 62
     0
 10
0.456867
 20
9.559187
 30
0.0
 11
0.456867
 21
7.898305
 31
0.0
  0
LINE
  5
A3E
  8
0
  6
BYBLOCK
 62
     0
 10
7.956867
 20
13.559187
 30
0.0
 11
7.956867
 21
7.898305
 31
0.0
  0
LINE
  5
A3F
  8
0
  6
BYBLOCK
 62
     0
 10
0.636867
 20
8.078305
 30
0.0
 11
3.216867
 21
8.078305
 31
0.0
  0
LINE
  5
A40
  8
0
  6
BYBLOCK
 62
     0
 10
7.776867
 20
8.078305
 30
0.0
 11
5.196867
 21
8.078305
 31
0.0
  0
SOLID
  5
A41
  8
0
  6
BYBLOCK
 62
     0
 10
0.636867
 20
8.108305
 30
0.0
 11
0.636867
 21
8.048305
 31
0.0
 12
0.456867
 22
8.078305
 32
0.0
 13
0.456867
 23
8.078305
 33
0.0
  0
SOLID
  5
A42
  8
0
  6
BYBLOCK
 62
     0
 10
7.776867
 20
8.108305
 30
0.0
 11
7.776867
 21
8.048305
 31
0.0
 12
7.956867
 22
8.078305
 32
0.0
 13
7.956867
 23
8.078305
 33
0.0
  0
TEXT
  8
0
  40
0.4
  5
B2E
  62
0
  72
0
  71
0
 10
3.40687
 20
7.37031
 30
0.000000
  1
7.5000
  0
POINT
  5
A44
  8
DEFPOINTS
  6
BYBLOCK
 62
     0
 10
0.456867
 20
9.621687
 30
0.0
  0
POINT
  5
A45
  8
DEFPOINTS
  6
BYBLOCK
 62
     0
 10
7.956867
 20
13.621687
 30
0.0
  0
POINT
  5
A46
  8
DEFPOINTS
  6
BYBLOCK
 62
     0
 10
7.956867
 20
8.078305
 30
0.0
  0
ENDBLK
  5
A47
  8
0
  0
BLOCK
  8
0
  2
*D31
 70
     1
 10
0.0
 20
0.0
 30
0.0
  3
*D31
  1

  0
LINE
  5
A4B
  8
0
  6
BYBLOCK
 62
     0
 10
15.019367
 20
13.621687
 30
0.0
 11
18.58159
 21
13.621687
 31
0.0
  0
LINE
  5
A4C
  8
0
  6
BYBLOCK
 62
     0
 10
15.019367
 20
0.621687
 30
0.0
 11
18.58159
 21
0.621687
 31
0.0
  0
LINE
  5
A4D
  8
0
  6
BYBLOCK
 62
     0
 10
18.40159
 20
13.441687
 30
0.0
 11
18.40159
 21
7.411687
 31
0.0
  0
LINE
  5
A4E
  8
0
  6
BYBLOCK
 62
     0
 10
18.40159
 20
0.801687
 30
0.0
 11
18.40159
 21
6.831687
 31
0.0
  0
SOLID
  5
A4F
  8
0
  6
BYBLOCK
 62
     0
 10
18.37159
 20
13.441687
 30
0.0
 11
18.43159
 21
13.441687
 31
0.0
 12
18.40159
 22
13.621687
 32
0.0
 13
18.40159
 23
13.621687
 33
0.0
  0
SOLID
  5
A50
  8
0
  6
BYBLOCK
 62
     0
 10
18.37159
 20
0.801687
 30
0.0
 11
18.43159
 21
0.801687
 31
0.0
 12
18.40159
 22
0.621687
 32
0.0
 13
18.40159
 23
0.621687
 33
0.0
  0
TEXT
  8
0
  40
0.4
  5
B2F
  62
0
  72
0
  71
0
 10
17.6016
 20
6.41369
 30
0.000000
  1
13.0000
  0
POINT
  5
A52
  8
DEFPOINTS
  6
BYBLOCK
 62
     0
 10
14.956867
 20
13.621687
 30
0.0
  0
POINT
  5
A53
  8
DEFPOINTS
  6
BYBLOCK
 62
     0
 10
14.956867
 20
0.621687
 30
0.0
  0
POINT
  5
A54
  8
DEFPOINTS
  6
BYBLOCK
 62
     0
 10
18.40159
 20
0.621687
 30
0.0
  0
ENDBLK
  5
A55
  8
0
  0
BLOCK
  8
0
  2
*D32
 70
     1
 10
0.0
 20
0.0
 30
0.0
  3
*D32
  1

  0
LINE
  5
A59
  8
0
  6
BYBLOCK
 62
     0
 10
7.956867
 20
13.684187
 30
0.0
 11
7.956867
 21
17.433071
 31
0.0
  0
LINE
  5
A5A
  8
0
  6
BYBLOCK
 62
     0
 10
14.956867
 20
13.684187
 30
0.0
 11
14.956867
 21
17.433071
 31
0.0
  0
LINE
  5
A5B
  8
0
  6
BYBLOCK
 62
     0
 10
8.136867
 20
17.253071
 30
0.0
 11
10.5002
 21
17.253071
 31
0.0
  0
LINE
  5
A5C
  8
0
  6
BYBLOCK
 62
     0
 10
14.776867
 20
17.253071
 30
0.0
 11
12.413534
 21
17.253071
 31
0.0
  0
SOLID
  5
A5D
  8
0
  6
BYBLOCK
 62
     0
 10
8.136867
 20
17.283071
 30
0.0
 11
8.136867
 21
17.223071
 31
0.0
 12
7.956867
 22
17.253071
 32
0.0
 13
7.956867
 23
17.253071
 33
0.0
  0
SOLID
  5
A5E
  8
0
  6
BYBLOCK
 62
     0
 10
14.776867
 20
17.283071
 30
0.0
 11
14.776867
 21
17.223071
 31
0.0
 12
14.956867
 22
17.253071
 32
0.0
 13
14.956867
 23
17.253071
 33
0.0
  0
TEXT
  8
0
  40
0.4
  5
B30
  62
0
  72
0
  71
0
 10
10.6569
 20
16.5451
 30
0.000000
  1
7.0000
  0
POINT
  5
A60
  8
DEFPOINTS
  6
BYBLOCK
 62
     0
 10
7.956867
 20
13.621687
 30
0.0
  0
POINT
  5
A61
  8
DEFPOINTS
  6
BYBLOCK
 62
     0
 10
14.956867
 20
13.621687
 30
0.0
  0
POINT
  5
A62
  8
DEFPOINTS
  6
BYBLOCK
 62
     0
 10
14.956867
 20
17.253071
 30
0.0
  0
ENDBLK
  5
A63
  8
0
  0
BLOCK
  8
0
  2
*D33
 70
     1
 10
0.0
 20
0.0
 30
0.0
  3
*D33
  1

  0
LINE
  5
A67
  8
0
  6
BYBLOCK
 62
     0
 10
14.956867
 20
0.559187
 30
0.0
 11
14.956867
 21
-3.260858
 31
0.0
  0
LINE
  5
A68
  8
0
  6
BYBLOCK
 62
     0
 10
22.456867
 20
0.559187
 30
0.0
 11
22.456867
 21
-3.260858
 31
0.0
  0
LINE
  5
A69
  8
0
  6
BYBLOCK
 62
     0
 10
15.136867
 20
-3.080858
 30
0.0
 11
17.716867
 21
-3.080858
 31
0.0
  0
LINE
  5
A6A
  8
0
  6
BYBLOCK
 62
     0
 10
22.276867
 20
-3.080858
 30
0.0
 11
19.696867
 21
-3.080858
 31
0.0
  0
SOLID
  5
A6B
  8
0
  6
BYBLOCK
 62
     0
 10
15.136867
 20
-3.050858
 30
0.0
 11
15.136867
 21
-3.110858
 31
0.0
 12
14.956867
 22
-3.080858
 32
0.0
 13
14.956867
 23
-3.080858
 33
0.0
  0
SOLID
  5
A6C
  8
0
  6
BYBLOCK
 62
     0
 10
22.276867
 20
-3.050858
 30
0.0
 11
22.276867
 21
-3.110858
 31
0.0
 12
22.456867
 22
-3.080858
 32
0.0
 13
22.456867
 23
-3.080858
 33
0.0
  0
TEXT
  8
0
  40
0.4
  5
B31
  62
0
  72
0
  71
0
 10
17.9069
 20
-3.78886
 30
0.000000
  1
7.5000
  0
POINT
  5
A6E
  8
DEFPOINTS
  6
BYBLOCK
 62
     0
 10
14.956867
 20
0.621687
 30
0.0
  0
POINT
  5
A6F
  8
DEFPOINTS
  6
BYBLOCK
 62
     0
 10
22.456867
 20
0.621687
 30
0.0
  0
POINT
  5
A70
  8
DEFPOINTS
  6
BYBLOCK
 62
     0
 10
22.456867
 20
-3.080858
 30
0.0
  0
ENDBLK
  5
A71
  8
0
  0
BLOCK
  8
0
  2
*D34
 70
     1
 10
0.0
 20
0.0
 30
0.0
  3
*D34
  1

  0
LINE
  5
A75
  8
0
  6
BYBLOCK
 62
     0
 10
-3.605633
 20
-10.378313
 30
0.0
 11
-7.673323
 21
-10.378313
 31
0.0
  0
LINE
  5
A76
  8
0
  6
BYBLOCK
 62
     0
 10
-3.605633
 20
-11.878313
 30
0.0
 11
-7.673323
 21
-11.878313
 31
0.0
  0
LINE
  5
A77
  8
0
  6
BYBLOCK
 62
     0
 10
-7.493323
 20
-10.558313
 30
0.0
 11
-7.493323
 21
-10.838313
 31
0.0
  0
LINE
  5
A78
  8
0
  6
BYBLOCK
 62
     0
 10
-7.493323
 20
-11.698313
 30
0.0
 11
-7.493323
 21
-11.418313
 31
0.0
  0
SOLID
  5
A79
  8
0
  6
BYBLOCK
 62
     0
 10
-7.523323
 20
-10.558313
 30
0.0
 11
-7.463323
 21
-10.558313
 31
0.0
 12
-7.493323
 22
-10.378313
 32
0.0
 13
-7.493323
 23
-10.378313
 33
0.0
  0
SOLID
  5
A7A
  8
0
  6
BYBLOCK
 62
     0
 10
-7.523323
 20
-11.698313
 30
0.0
 11
-7.463323
 21
-11.698313
 31
0.0
 12
-7.493323
 22
-11.878313
 32
0.0
 13
-7.493323
 23
-11.878313
 33
0.0
  0
TEXT
  8
0
  40
0.4
  5
B32
  62
0
  72
0
  71
0
 10
-8.29332
 20
-11.8363
 30
0.000000
  1
1.5000
  0
POINT
  5
A7C
  8
DEFPOINTS
  6
BYBLOCK
 62
     0
 10
-3.543133
 20
-10.378313
 30
0.0
  0
POINT
  5
A7D
  8
DEFPOINTS
  6
BYBLOCK
 62
     0
 10
-3.543133
 20
-11.878313
 30
0.0
  0
POINT
  5
A7E
  8
DEFPOINTS
  6
BYBLOCK
 62
     0
 10
-7.493323
 20
-11.878313
 30
0.0
  0
ENDBLK
  5
A7F
  8
0
  0
BLOCK
  8
0
  2
*D35
 70
     1
 10
0.0
 20
0.0
 30
0.0
  3
*D35
  1

  0
LINE
  5
A83
  8
0
  6
BYBLOCK
 62
     0
 10
-3.668133
 20
-11.878313
 30
0.0
 11
-7.703231
 21
-11.878313
 31
0.0
  0
LINE
  5
A84
  8
0
  6
BYBLOCK
 62
     0
 10
-3.605633
 20
-12.878313
 30
0.0
 11
-7.703231
 21
-12.878313
 31
0.0
  0
LINE
  5
A85
  8
0
  6
BYBLOCK
 62
     0
 10
-7.523231
 20
-11.698313
 30
0.0
 11
-7.523231
 21
-11.518313
 31
0.0
  0
LINE
  5
A86
  8
0
  6
BYBLOCK
 62
     0
 10
-7.523231
 20
-13.058313
 30
0.0
 11
-7.523231
 21
-13.238313
 31
0.0
  0
SOLID
  5
A87
  8
0
  6
BYBLOCK
 62
     0
 10
-7.553231
 20
-11.698313
 30
0.0
 11
-7.493231
 21
-11.698313
 31
0.0
 12
-7.523231
 22
-11.878313
 32
0.0
 13
-7.523231
 23
-11.878313
 33
0.0
  0
SOLID
  5
A88
  8
0
  6
BYBLOCK
 62
     0
 10
-7.553231
 20
-13.058313
 30
0.0
 11
-7.493231
 21
-13.058313
 31
0.0
 12
-7.523231
 22
-12.878313
 32
0.0
 13
-7.523231
 23
-12.878313
 33
0.0
  0
TEXT
  8
0
  40
0.4
  5
B33
  62
0
  72
0
  71
0
 10
-8.32323
 20
-13.0863
 30
0.000000
  1
1.0000
  0
POINT
  5
A8A
  8
DEFPOINTS
  6
BYBLOCK
 62
     0
 10
-3.605633
 20
-11.878313
 30
0.0
  0
POINT
  5
A8B
  8
DEFPOINTS
  6
BYBLOCK
 62
     0
 10
-3.543133
 20
-12.878313
 30
0.0
  0
POINT
  5
A8C
  8
DEFPOINTS
  6
BYBLOCK
 62
     0
 10
-7.523231
 20
-12.878313
 30
0.0
  0
ENDBLK
  5
A8D
  8
0
  0
BLOCK
  8
0
  2
*D36
 70
     1
 10
0.0
 20
0.0
 30
0.0
  3
*D36
  1

  0
LINE
  5
A91
  8
0
  6
BYBLOCK
 62
     0
 10
-3.543133
 20
-12.940813
 30
0.0
 11
-3.543133
 21
-14.662821
 31
0.0
  0
LINE
  5
A92
  8
0
  6
BYBLOCK
 62
     0
 10
12.956867
 20
-12.940813
 30
0.0
 11
12.956867
 21
-14.662821
 31
0.0
  0
LINE
  5
A93
  8
0
  6
BYBLOCK
 62
     0
 10
-3.363133
 20
-14.482821
 30
0.0
 11
3.583534
 21
-14.482821
 31
0.0
  0
LINE
  5
A94
  8
0
  6
BYBLOCK
 62
     0
 10
12.776867
 20
-14.482821
 30
0.0
 11
5.8302
 21
-14.482821
 31
0.0
  0
SOLID
  5
A95
  8
0
  6
BYBLOCK
 62
     0
 10
-3.363133
 20
-14.452821
 30
0.0
 11
-3.363133
 21
-14.512821
 31
0.0
 12
-3.543133
 22
-14.482821
 32
0.0
 13
-3.543133
 23
-14.482821
 33
0.0
  0
SOLID
  5
A96
  8
0
  6
BYBLOCK
 62
     0
 10
12.776867
 20
-14.452821
 30
0.0
 11
12.776867
 21
-14.512821
 31
0.0
 12
12.956867
 22
-14.482821
 32
0.0
 13
12.956867
 23
-14.482821
 33
0.0
  0
TEXT
  8
0
  40
0.4
  5
B34
  62
0
  72
0
  71
0
 10
3.90687
 20
-15.1908
 30
0.000000
  1
16.5000
  0
POINT
  5
A98
  8
DEFPOINTS
  6
BYBLOCK
 62
     0
 10
-3.543133
 20
-12.878313
 30
0.0
  0
POINT
  5
A99
  8
DEFPOINTS
  6
BYBLOCK
 62
     0
 10
12.956867
 20
-12.878313
 30
0.0
  0
POINT
  5
A9A
  8
DEFPOINTS
  6
BYBLOCK
 62
     0
 10
12.956867
 20
-14.482821
 30
0.0
  0
ENDBLK
  5
A9B
  8
0
  0
BLOCK
  8
0
  2
*D37
 70
     1
 10
0.0
 20
0.0
 30
0.0
  3
*D37
  1

  0
LINE
  5
A9F
  8
0
  6
BYBLOCK
 62
     0
 10
12.956867
 20
-13.003313
 30
0.0
 11
12.956867
 21
-14.632925
 31
0.0
  0
LINE
  5
AA0
  8
0
  6
BYBLOCK
 62
     0
 10
17.456867
 20
-12.940813
 30
0.0
 11
17.456867
 21
-14.632925
 31
0.0
  0
LINE
  5
AA1
  8
0
  6
BYBLOCK
 62
     0
 10
13.136867
 20
-14.452925
 30
0.0
 11
14.216867
 21
-14.452925
 31
0.0
  0
LINE
  5
AA2
  8
0
  6
BYBLOCK
 62
     0
 10
17.276867
 20
-14.452925
 30
0.0
 11
16.196867
 21
-14.452925
 31
0.0
  0
SOLID
  5
AA3
  8
0
  6
BYBLOCK
 62
     0
 10
13.136867
 20
-14.422925
 30
0.0
 11
13.136867
 21
-14.482925
 31
0.0
 12
12.956867
 22
-14.452925
 32
0.0
 13
12.956867
 23
-14.452925
 33
0.0
  0
SOLID
  5
AA4
  8
0
  6
BYBLOCK
 62
     0
 10
17.276867
 20
-14.422925
 30
0.0
 11
17.276867
 21
-14.482925
 31
0.0
 12
17.456867
 22
-14.452925
 32
0.0
 13
17.456867
 23
-14.452925
 33
0.0
  0
TEXT
  8
0
  40
0.4
  5
B35
  62
0
  72
0
  71
0
 10
14.4069
 20
-15.1609
 30
0.000000
  1
4.5000
  0
POINT
  5
AA6
  8
DEFPOINTS
  6
BYBLOCK
 62
     0
 10
12.956867
 20
-12.940813
 30
0.0
  0
POINT
  5
AA7
  8
DEFPOINTS
  6
BYBLOCK
 62
     0
 10
17.456867
 20
-12.878313
 30
0.0
  0
POINT
  5
AA8
  8
DEFPOINTS
  6
BYBLOCK
 62
     0
 10
17.456867
 20
-14.452925
 30
0.0
  0
ENDBLK
  5
AA9
  8
0
  0
BLOCK
  8
0
  2
*D38
 70
     1
 10
0.0
 20
0.0
 30
0.0
  3
*D38
  1

  0
LINE
  5
AAD
  8
0
  6
BYBLOCK
 62
     0
 10
13.019367
 20
-10.878313
 30
0.0
 11
15.266999
 21
-10.878313
 31
0.0
  0
LINE
  5
AAE
  8
0
  6
BYBLOCK
 62
     0
 10
13.019367
 20
-12.878313
 30
0.0
 11
15.266999
 21
-12.878313
 31
0.0
  0
LINE
  5
AAF
  8
0
  6
BYBLOCK
 62
     0
 10
15.086999
 20
-11.058313
 30
0.0
 11
15.086999
 21
-11.588313
 31
0.0
  0
LINE
  5
AB0
  8
0
  6
BYBLOCK
 62
     0
 10
15.086999
 20
-12.698313
 30
0.0
 11
15.086999
 21
-12.168313
 31
0.0
  0
SOLID
  5
AB1
  8
0
  6
BYBLOCK
 62
     0
 10
15.056999
 20
-11.058313
 30
0.0
 11
15.116999
 21
-11.058313
 31
0.0
 12
15.086999
 22
-10.878313
 32
0.0
 13
15.086999
 23
-10.878313
 33
0.0
  0
SOLID
  5
AB2
  8
0
  6
BYBLOCK
 62
     0
 10
15.056999
 20
-12.698313
 30
0.0
 11
15.116999
 21
-12.698313
 31
0.0
 12
15.086999
 22
-12.878313
 32
0.0
 13
15.086999
 23
-12.878313
 33
0.0
  0
TEXT
  8
0
  40
0.4
  5
B36
  62
0
  72
0
  71
0
 10
14.2870
 20
-12.5863
 30
0.000000
  1
2.0000
  0
POINT
  5
AB4
  8
DEFPOINTS
  6
BYBLOCK
 62
     0
 10
12.956867
 20
-10.878313
 30
0.0
  0
POINT
  5
AB5
  8
DEFPOINTS
  6
BYBLOCK
 62
     0
 10
12.956867
 20
-12.878313
 30
0.0
  0
POINT
  5
AB6
  8
DEFPOINTS
  6
BYBLOCK
 62
     0
 10
15.086999
 20
-12.878313
 30
0.0
  0
ENDBLK
  5
AB7
  8
0
  0
BLOCK
  8
0
  2
*D39
 70
     1
 10
0.0
 20
0.0
 30
0.0
  3
*D39
  1

  0
LINE
  5
ABB
  8
0
  6
BYBLOCK
 62
     0
 10
0.456867
 20
-10.315813
 30
0.0
 11
0.456867
 21
-8.413242
 31
0.0
  0
LINE
  5
ABC
  8
0
  6
BYBLOCK
 62
     0
 10
-3.543133
 20
-10.315813
 30
0.0
 11
-3.543133
 21
-8.413242
 31
0.0
  0
LINE
  5
ABD
  8
0
  6
BYBLOCK
 62
     0
 10
0.276867
 20
-8.593242
 30
0.0
 11
-0.586466
 21
-8.593242
 31
0.0
  0
LINE
  5
ABE
  8
0
  6
BYBLOCK
 62
     0
 10
-3.363133
 20
-8.593242
 30
0.0
 11
-2.4998
 21
-8.593242
 31
0.0
  0
SOLID
  5
ABF
  8
0
  6
BYBLOCK
 62
     0
 10
0.276867
 20
-8.563242
 30
0.0
 11
0.276867
 21
-8.623242
 31
0.0
 12
0.456867
 22
-8.593242
 32
0.0
 13
0.456867
 23
-8.593242
 33
0.0
  0
SOLID
  5
AC0
  8
0
  6
BYBLOCK
 62
     0
 10
-3.363133
 20
-8.563242
 30
0.0
 11
-3.363133
 21
-8.623242
 31
0.0
 12
-3.543133
 22
-8.593242
 32
0.0
 13
-3.543133
 23
-8.593242
 33
0.0
  0
TEXT
  8
0
  40
0.4
  5
B37
  62
0
  72
0
  71
0
 10
-2.34313
 20
-9.30124
 30
0.000000
  1
4.0000
  0
POINT
  5
AC2
  8
DEFPOINTS
  6
BYBLOCK
 62
     0
 10
0.456867
 20
-10.378313
 30
0.0
  0
POINT
  5
AC3
  8
DEFPOINTS
  6
BYBLOCK
 62
     0
 10
-3.543133
 20
-10.378313
 30
0.0
  0
POINT
  5
AC4
  8
DEFPOINTS
  6
BYBLOCK
 62
     0
 10
-3.543133
 20
-8.593242
 30
0.0
  0
ENDBLK
  5
AC5
  8
0
  0
BLOCK
  8
0
  2
*D40
 70
     1
 10
0.0
 20
0.0
 30
0.0
  3
*D40
  1

  0
LINE
  5
AC9
  8
0
  6
BYBLOCK
 62
     0
 10
-3.543133
 20
-13.003313
 30
0.0
 11
-3.543133
 21
-16.366913
 31
0.0
  0
LINE
  5
ACA
  8
0
  6
BYBLOCK
 62
     0
 10
26.456867
 20
-12.940813
 30
0.0
 11
26.456867
 21
-16.366913
 31
0.0
  0
LINE
  5
ACB
  8
0
  6
BYBLOCK
 62
     0
 10
-3.363133
 20
-16.186913
 30
0.0
 11
10.333534
 21
-16.186913
 31
0.0
  0
LINE
  5
ACC
  8
0
  6
BYBLOCK
 62
     0
 10
26.276867
 20
-16.186913
 30
0.0
 11
12.5802
 21
-16.186913
 31
0.0
  0
SOLID
  5
ACD
  8
0
  6
BYBLOCK
 62
     0
 10
-3.363133
 20
-16.156913
 30
0.0
 11
-3.363133
 21
-16.216913
 31
0.0
 12
-3.543133
 22
-16.186913
 32
0.0
 13
-3.543133
 23
-16.186913
 33
0.0
  0
SOLID
  5
ACE
  8
0
  6
BYBLOCK
 62
     0
 10
26.276867
 20
-16.156913
 30
0.0
 11
26.276867
 21
-16.216913
 31
0.0
 12
26.456867
 22
-16.186913
 32
0.0
 13
26.456867
 23
-16.186913
 33
0.0
  0
TEXT
  8
0
  40
0.4
  5
B38
  62
0
  72
0
  71
0
 10
10.6569
 20
-16.8949
 30
0.000000
  1
30.0000
  0
POINT
  5
AD0
  8
DEFPOINTS
  6
BYBLOCK
 62
     0
 10
-3.543133
 20
-12.940813
 30
0.0
  0
POINT
  5
AD1
  8
DEFPOINTS
  6
BYBLOCK
 62
     0
 10
26.456867
 20
-12.878313
 30
0.0
  0
POINT
  5
AD2
  8
DEFPOINTS
  6
BYBLOCK
 62
     0
 10
26.456867
 20
-16.186913
 30
0.0
  0
ENDBLK
  5
AD3
  8
0
  0
BLOCK
  8
0
  2
*D41
 70
     1
 10
0.0
 20
0.0
 30
0.0
  3
*D41
  1

  0
LINE
  5
AD7
  8
0
  6
BYBLOCK
 62
     0
 10
26.519367
 20
-10.378313
 30
0.0
 11
29.227903
 21
-10.378313
 31
0.0
  0
LINE
  5
AD8
  8
0
  6
BYBLOCK
 62
     0
 10
26.519367
 20
-12.878313
 30
0.0
 11
29.227903
 21
-12.878313
 31
0.0
  0
LINE
  5
AD9
  8
0
  6
BYBLOCK
 62
     0
 10
29.047903
 20
-10.558313
 30
0.0
 11
29.047903
 21
-11.338313
 31
0.0
  0
LINE
  5
ADA
  8
0
  6
BYBLOCK
 62
     0
 10
29.047903
 20
-12.698313
 30
0.0
 11
29.047903
 21
-11.918313
 31
0.0
  0
SOLID
  5
ADB
  8
0
  6
BYBLOCK
 62
     0
 10
29.017903
 20
-10.558313
 30
0.0
 11
29.077903
 21
-10.558313
 31
0.0
 12
29.047903
 22
-10.378313
 32
0.0
 13
29.047903
 23
-10.378313
 33
0.0
  0
SOLID
  5
ADC
  8
0
  6
BYBLOCK
 62
     0
 10
29.017903
 20
-12.698313
 30
0.0
 11
29.077903
 21
-12.698313
 31
0.0
 12
29.047903
 22
-12.878313
 32
0.0
 13
29.047903
 23
-12.878313
 33
0.0
  0
TEXT
  8
0
  40
0.4
  5
B39
  62
0
  72
0
  71
0
 10
28.2479
 20
-12.3363
 30
0.000000
  1
2.5000
  0
POINT
  5
ADE
  8
DEFPOINTS
  6
BYBLOCK
 62
     0
 10
26.456867
 20
-10.378313
 30
0.0
  0
POINT
  5
ADF
  8
DEFPOINTS
  6
BYBLOCK
 62
     0
 10
26.456867
 20
-12.878313
 30
0.0
  0
POINT
  5
AE0
  8
DEFPOINTS
  6
BYBLOCK
 62
     0
 10
29.047903
 20
-12.878313
 30
0.0
  0
ENDBLK
  5
AE1
  8
0
  0
BLOCK
  8
0
  2
*D42
 70
     1
 10
0.0
 20
0.0
 30
0.0
  3
*D42
  1

  0
LINE
  5
AE5
  8
0
  6
BYBLOCK
 62
     0
 10
22.519367
 20
-10.378313
 30
0.0
 11
29.223284
 21
-10.378313
 31
0.0
  0
LINE
  5
AE6
  8
0
  6
BYBLOCK
 62
     0
 10
22.519367
 20
0.621687
 30
0.0
 11
29.223284
 21
0.621687
 31
0.0
  0
LINE
  5
AE7
  8
0
  6
BYBLOCK
 62
     0
 10
29.043284
 20
-10.198313
 30
0.0
 11
29.043284
 21
-5.168313
 31
0.0
  0
LINE
  5
AE8
  8
0
  6
BYBLOCK
 62
     0
 10
29.043284
 20
0.441687
 30
0.0
 11
29.043284
 21
-4.588313
 31
0.0
  0
SOLID
  5
AE9
  8
0
  6
BYBLOCK
 62
     0
 10
29.013284
 20
-10.198313
 30
0.0
 11
29.073284
 21
-10.198313
 31
0.0
 12
29.043284
 22
-10.378313
 32
0.0
 13
29.043284
 23
-10.378313
 33
0.0
  0
SOLID
  5
AEA
  8
0
  6
BYBLOCK
 62
     0
 10
29.013284
 20
0.441687
 30
0.0
 11
29.073284
 21
0.441687
 31
0.0
 12
29.043284
 22
0.621687
 32
0.0
 13
29.043284
 23
0.621687
 33
0.0
  0
TEXT
  8
0
  40
0.4
  5
B3A
  62
0
  72
0
  71
0
 10
28.2433
 20
-5.58631
 30
0.000000
  1
11.0000
  0
POINT
  5
AEC
  8
DEFPOINTS
  6
BYBLOCK
 62
     0
 10
22.456867
 20
-10.378313
 30
0.0
  0
POINT
  5
AED
  8
DEFPOINTS
  6
BYBLOCK
 62
     0
 10
22.456867
 20
0.621687
 30
0.0
  0
POINT
  5
AEE
  8
DEFPOINTS
  6
BYBLOCK
 62
     0
 10
29.043284
 20
0.621687
 30
0.0
  0
ENDBLK
  5
AEF
  8
0
  0
BLOCK
  8
0
  2
*D43
 70
     1
 10
0.0
 20
0.0
 30
0.0
  3
*D43
  1

  0
LINE
  5
AF3
  8
0
  6
BYBLOCK
 62
     0
 10
22.519367
 20
18.621687
 30
0.0
 11
31.986701
 21
18.621687
 31
0.0
  0
LINE
  5
AF4
  8
0
  6
BYBLOCK
 62
     0
 10
22.519367
 20
-10.378313
 30
0.0
 11
31.986701
 21
-10.378313
 31
0.0
  0
LINE
  5
AF5
  8
0
  6
BYBLOCK
 62
     0
 10
31.806701
 20
18.441687
 30
0.0
 11
31.806701
 21
4.411687
 31
0.0
  0
LINE
  5
AF6
  8
0
  6
BYBLOCK
 62
     0
 10
31.806701
 20
-10.198313
 30
0.0
 11
31.806701
 21
3.831687
 31
0.0
  0
SOLID
  5
AF7
  8
0
  6
BYBLOCK
 62
     0
 10
31.776701
 20
18.441687
 30
0.0
 11
31.836701
 21
18.441687
 31
0.0
 12
31.806701
 22
18.621687
 32
0.0
 13
31.806701
 23
18.621687
 33
0.0
  0
SOLID
  5
AF8
  8
0
  6
BYBLOCK
 62
     0
 10
31.776701
 20
-10.198313
 30
0.0
 11
31.836701
 21
-10.198313
 31
0.0
 12
31.806701
 22
-10.378313
 32
0.0
 13
31.806701
 23
-10.378313
 33
0.0
  0
TEXT
  8
0
  40
0.4
  5
B3B
  62
0
  72
0
  71
0
 10
31.0067
 20
3.41369
 30
0.000000
  1
29.0000
  0
POINT
  5
AFA
  8
DEFPOINTS
  6
BYBLOCK
 62
     0
 10
22.456867
 20
18.621687
 30
0.0
  0
POINT
  5
AFB
  8
DEFPOINTS
  6
BYBLOCK
 62
     0
 10
22.456867
 20
-10.378313
 30
0.0
  0
POINT
  5
AFC
  8
DEFPOINTS
  6
BYBLOCK
 62
     0
 10
31.806701
 20
-10.378313
 30
0.0
  0
ENDBLK
  5
AFD
  8
0
  0
BLOCK
  8
0
  2
*D44
 70
     1
 10
0.0
 20
0.0
 30
0.0
  3
*D44
  1

  0
LINE
  5
B01
  8
0
  6
BYBLOCK
 62
     0
 10
22.519367
 20
29.621687
 30
0.0
 11
34.947505
 21
29.621687
 31
0.0
  0
LINE
  5
B02
  8
0
  6
BYBLOCK
 62
     0
 10
22.581867
 20
-10.378313
 30
0.0
 11
34.947505
 21
-10.378313
 31
0.0
  0
LINE
  5
B03
  8
0
  6
BYBLOCK
 62
     0
 10
34.767505
 20
29.441687
 30
0.0
 11
34.767505
 21
9.911687
 31
0.0
  0
LINE
  5
B04
  8
0
  6
BYBLOCK
 62
     0
 10
34.767505
 20
-10.198313
 30
0.0
 11
34.767505
 21
9.331687
 31
0.0
  0
SOLID
  5
B05
  8
0
  6
BYBLOCK
 62
     0
 10
34.737505
 20
29.441687
 30
0.0
 11
34.797505
 21
29.441687
 31
0.0
 12
34.767505
 22
29.621687
 32
0.0
 13
34.767505
 23
29.621687
 33
0.0
  0
SOLID
  5
B06
  8
0
  6
BYBLOCK
 62
     0
 10
34.737505
 20
-10.198313
 30
0.0
 11
34.797505
 21
-10.198313
 31
0.0
 12
34.767505
 22
-10.378313
 32
0.0
 13
34.767505
 23
-10.378313
 33
0.0
  0
TEXT
  8
0
  40
0.4
  5
B3C
  62
0
  72
0
  71
0
 10
33.9675
 20
8.91369
 30
0.000000
  1
40.0000
  0
POINT
  5
B08
  8
DEFPOINTS
  6
BYBLOCK
 62
     0
 10
22.456867
 20
29.621687
 30
0.0
  0
POINT
  5
B09
  8
DEFPOINTS
  6
BYBLOCK
 62
     0
 10
22.519367
 20
-10.378313
 30
0.0
  0
POINT
  5
B0A
  8
DEFPOINTS
  6
BYBLOCK
 62
     0
 10
34.767505
 20
-10.378313
 30
0.0
  0
ENDBLK
  5
B0B
  8
0
  0
ENDSEC
  0
SECTION
  2
ENTITIES
  0
ARC
  5
7EE
  8
0
 10
11.456867
 20
24.12169
 30
0.0
 40
14.999999
 50
21.510177
 51
158.489823
  0
LINE
  5
7EF
  8
0
 10
-3.543133
 20
-12.878313
 30
0.0
 11
12.956867
 21
-12.878313
 31
0.0
  0
LINE
  5
7F0
  8
0
 10
17.456867
 20
-12.878313
 30
0.0
 11
26.456867
 21
-12.878313
 31
0.0
  0
LINE
  5
7F1
  8
0
 10
22.456867
 20
-10.378313
 30
0.0
 11
22.456867
 21
29.621687
 31
0.0
  0
LINE
  5
7F2
  8
0
 10
0.456867
 20
29.621687
 30
0.0
 11
0.456867
 21
-10.378313
 31
0.0
  0
LINE
  5
7F3
  8
0
 10
14.956867
 20
13.621687
 30
0.0
 11
7.956867
 21
13.621687
 31
0.0
  0
LINE
  5
7F4
  8
0
 10
7.956867
 20
0.621687
 30
0.0
 11
7.956867
 21
13.621687
 31
0.0
  0
LINE
  5
7F5
  8
0
 10
14.956867
 20
0.621687
 30
0.0
 11
14.956867
 21
13.621687
 31
0.0
  0
LINE
  5
7F6
  8
0
 10
12.956867
 20
-10.878313
 30
0.0
 11
17.456867
 21
-10.878313
 31
0.0
  0
LINE
  5
7F7
  8
0
 10
17.456867
 20
-10.878313
 30
0.0
 11
17.456867
 21
-12.878313
 31
0.0
  0
LINE
  5
7F8
  8
0
 10
12.956867
 20
-10.878313
 30
0.0
 11
12.956867
 21
-12.878313
 31
0.0
  0
LINE
  5
7F9
  8
0
 10
-3.543133
 20
-12.878313
 30
0.0
 11
-3.543133
 21
-11.878313
 31
0.0
  0
LINE
  5
7FA
  8
0
 10
-3.543133
 20
-11.878313
 30
0.0
 11
-3.543133
 21
-10.378313
 31
0.0
  0
LINE
  5
7FB
  8
0
 10
-3.543133
 20
-10.378313
 30
0.0
 11
0.456867
 21
-10.378313
 31
0.0
  0
LINE
  5
7FC
  8
0
 10
26.456867
 20
-10.378313
 30
0.0
 11
26.456867
 21
-11.878313
 31
0.0
  0
LINE
  5
7FD
  8
0
 10
26.456867
 20
-11.878313
 30
0.0
 11
26.456867
 21
-12.878313
 31
0.0
  0
LINE
  5
7FE
  8
0
 10
22.456867
 20
-10.378313
 30
0.0
 11
26.456867
 21
-10.378313
 31
0.0
  0
LINE
  5
7FF
  8
0
 10
-26.762959
 20
28.468163
 30
0.0
 11
-27.72422
 21
28.743801
 31
0.0
  0
LINE
  5
800
  8
0
 10
-26.762959
 20
28.468163
 30
0.0
 11
-24.359802
 21
27.77907
 31
0.0
  0
LINE
  5
801
  8
0
 10
-24.359802
 20
27.77907
 30
0.0
 11
-23.730946
 21
29.972153
 31
0.0
  0
LINE
  5
802
  8
0
 10
-23.730946
 20
29.972153
 30
0.0
 11
-23.730946
 21
27.692154
 31
0.0
  0
LINE
  5
803
  8
0
 10
-23.730946
 20
27.692154
 30
0.0
 11
-16.730947
 21
27.692154
 31
0.0
  0
LINE
  5
804
  8
0
 10
-13.698936
 20
28.468163
 30
0.0
 11
-12.737675
 21
28.743801
 31
0.0
  0
LINE
  5
805
  8
0
 10
-13.698936
 20
28.468163
 30
0.0
 11
-16.102091
 21
27.77907
 31
0.0
  0
LINE
  5
806
  8
0
 10
-16.102091
 20
27.77907
 30
0.0
 11
-16.730947
 21
29.972153
 31
0.0
  0
LINE
  5
807
  8
0
 10
-16.730947
 20
39.042042
 30
0.0
 11
-17.730947
 21
40.042042
 31
0.0
  0
LINE
  5
808
  8
0
 10
-17.730947
 20
40.042042
 30
0.0
 11
-22.730946
 21
40.042042
 31
0.0
  0
LINE
  5
809
  8
0
 10
-13.124371
 20
18.561752
 30
0.0
 11
-13.124371
 21
0.561752
 31
0.0
  0
LINE
  5
80A
  8
0
 10
-13.124371
 20
0.561752
 30
0.0
 11
-14.124371
 21
0.561752
 31
0.0
  0
LINE
  5
80B
  8
0
 10
-14.124371
 20
18.561752
 30
0.0
 11
-13.124371
 21
18.561752
 31
0.0
  0
LINE
  5
80C
  8
0
 10
-25.124371
 20
-0.438248
 30
0.0
 11
-25.124371
 21
0.561752
 31
0.0
  0
LINE
  5
80D
  8
0
 10
-14.124371
 20
-0.438248
 30
0.0
 11
-25.124371
 21
-0.438248
 31
0.0
  0
LINE
  5
80E
  8
0
 10
-14.124371
 20
0.561752
 30
0.0
 11
-14.124371
 21
-0.438248
 31
0.0
  0
LINE
  5
80F
  8
0
 10
-14.124371
 20
19.561752
 30
0.0
 11
-25.124371
 21
19.561752
 31
0.0
  0
LINE
  5
810
  8
0
 10
-14.124371
 20
18.561752
 30
0.0
 11
-14.124371
 21
19.561752
 31
0.0
  0
LINE
  5
811
  8
0
 10
-25.124371
 20
19.561752
 30
0.0
 11
-25.124371
 21
18.561752
 31
0.0
  0
LINE
  5
812
  8
0
 10
-25.124371
 20
18.561752
 30
0.0
 11
-28.079657
 21
18.561752
 31
0.0
  0
ARC
  5
813
  8
0
 10
-14.124375
 20
13.061754
 30
0.0
 40
14.999996
 50
158.489814
 51
180.000008
  0
LINE
  5
814
  8
0
 10
-25.124371
 20
0.561752
 30
0.0
 11
-29.124371
 21
0.561752
 31
0.0
  0
LINE
  5
815
  8
0
 10
-29.124371
 20
13.061752
 30
0.0
 11
-29.124371
 21
0.561752
 31
0.0
  0
LINE
  5
816
  8
0
 10
-14.106042
 20
-8.314536
 30
0.0
 11
-17.061329
 21
-8.314536
 31
0.0
  0
ARC
  5
817
  8
0
 10
-28.061324
 20
-13.814535
 30
0.0
 40
14.999996
 50
359.999996
 51
21.510186
  0
LINE
  5
818
  8
0
 10
-13.061328
 20
-26.314535
 30
0.0
 11
-17.061329
 21
-26.314535
 31
0.0
  0
LINE
  5
819
  8
0
 10
-13.061328
 20
-13.814535
 30
0.0
 11
-13.061328
 21
-26.314535
 31
0.0
  0
LINE
  5
81A
  8
0
 10
-17.061329
 20
-26.314535
 30
0.0
 11
-17.061329
 21
-27.314535
 31
0.0
  0
LINE
  5
81B
  8
0
 10
-17.061329
 20
-27.314535
 30
0.0
 11
-28.061329
 21
-27.314535
 31
0.0
  0
LINE
  5
81C
  8
0
 10
-28.061329
 20
-27.314535
 30
0.0
 11
-28.061329
 21
-26.314535
 31
0.0
  0
LINE
  5
81D
  8
0
 10
-17.061329
 20
-8.314536
 30
0.0
 11
-17.061329
 21
-7.314536
 31
0.0
  0
LINE
  5
81E
  8
0
 10
-17.061329
 20
-7.314536
 30
0.0
 11
-28.061329
 21
-7.314536
 31
0.0
  0
LINE
  5
81F
  8
0
 10
-28.061329
 20
-7.314536
 30
0.0
 11
-28.061329
 21
-8.314536
 31
0.0
  0
LINE
  5
820
  8
0
 10
-28.061329
 20
-8.314536
 30
0.0
 11
-29.061329
 21
-8.314536
 31
0.0
  0
LINE
  5
821
  8
0
 10
-29.061329
 20
-26.314535
 30
0.0
 11
-28.061329
 21
-26.314535
 31
0.0
  0
LINE
  5
822
  8
0
 10
-29.061329
 20
-8.314536
 30
0.0
 11
-29.061329
 21
-26.314535
 31
0.0
  0
LINE
  5
823
  8
0
 10
-3.692155
 20
-39.108696
 30
0.0
 11
20.307844
 21
-39.108696
 31
0.0
  0
LINE
  5
824
  8
0
 10
-3.692155
 20
-19.10869
 30
0.0
 11
-3.692155
 21
-39.108696
 31
0.0
  0
LINE
  5
825
  8
0
 10
-3.543133
 20
-12.878313
 30
0.0
 11
-3.543133
 21
-11.878313
 31
0.0
  0
LINE
  5
826
  8
0
 10
14.956867
 20
0.621687
 30
0.0
 11
7.956867
 21
0.621687
 31
0.0
  0
LINE
  5
827
  8
0
 10
25.412153
 20
29.621687
 30
0.0
 11
22.456867
 21
29.621687
 31
0.0
  0
LINE
  5
828
  8
0
 10
0.456867
 20
29.621687
 30
0.0
 11
-2.498419
 21
29.621687
 31
0.0
  0
LINE
  5
829
  8
0
 10
-22.730946
 20
40.042042
 30
0.0
 11
-23.730946
 21
39.042042
 31
0.0
  0
LINE
  5
82A
  8
0
 10
-16.730947
 20
29.972153
 30
0.0
 11
-16.730947
 21
27.692154
 31
0.0
  0
LINE
  5
82B
  8
0
 10
20.307844
 20
-19.10869
 30
0.0
 11
-3.692155
 21
-19.10869
 31
0.0
  0
LINE
  5
82C
  8
0
 10
20.307844
 20
-19.10869
 30
0.0
 11
20.307844
 21
-39.108696
 31
0.0
  0
LINE
  5
82D
  8
1
 10
-28.061329
 20
-26.314535
 30
0.0
 11
-28.061329
 21
-8.314536
 31
0.0
  0
LINE
  5
82E
  8
1
 10
-17.061329
 20
-26.314535
 30
0.0
 11
-28.061329
 21
-26.314535
 31
0.0
  0
LINE
  5
82F
  8
1
 10
-17.061329
 20
-8.314536
 30
0.0
 11
-17.061329
 21
-26.314535
 31
0.0
  0
LINE
  5
830
  8
1
 10
-28.061329
 20
-8.314536
 30
0.0
 11
-17.061329
 21
-8.314536
 31
0.0
  0
LINE
  5
831
  8
1
 10
-25.124371
 20
0.561752
 30
0.0
 11
-25.124371
 21
18.561752
 31
0.0
  0
LINE
  5
832
  8
1
 10
-14.124371
 20
0.561752
 30
0.0
 11
-25.124371
 21
0.561752
 31
0.0
  0
LINE
  5
833
  8
1
 10
-14.124371
 20
18.561752
 30
0.0
 11
-14.124371
 21
0.561752
 31
0.0
  0
LINE
  5
834
  8
1
 10
-25.124371
 20
18.561752
 30
0.0
 11
-14.124371
 21
18.561752
 31
0.0
  0
LINE
  5
835
  8
1
 10
-23.730946
 20
29.972153
 30
0.0
 11
-23.730946
 21
39.042042
 31
0.0
  0
LINE
  5
836
  8
1
 10
-16.730947
 20
39.042042
 30
0.0
 11
-16.730947
 21
29.972153
 31
0.0
  0
LINE
  5
837
  8
1
 10
-16.730947
 20
39.042042
 30
0.0
 11
-13.698936
 21
28.468163
 31
0.0
  0
LINE
  5
838
  8
1
 10
-23.730946
 20
39.042042
 30
0.0
 11
-16.730947
 21
39.042042
 31
0.0
  0
LINE
  5
839
  8
1
 10
-26.762959
 20
28.468163
 30
0.0
 11
-23.730946
 21
39.042042
 31
0.0
  0
LINE
  5
83A
  8
1
 10
12.956867
 20
-11.878313
 30
0.0
 11
-3.543133
 21
-11.878313
 31
0.0
  0
LINE
  5
83B
  8
1
 10
26.456867
 20
-11.878313
 30
0.0
 11
17.456867
 21
-11.878313
 31
0.0
  0
LINE
  5
83C
  8
1
 10
22.456867
 20
-10.378313
 30
0.0
 11
0.456867
 21
-10.378313
 31
0.0
  0
LINE
  5
83D
  8
1
 10
22.456867
 20
0.621687
 30
0.0
 11
0.456867
 21
0.621687
 31
0.0
  0
LINE
  5
83E
  8
1
 10
22.456867
 20
18.621687
 30
0.0
 11
0.456867
 21
18.621687
 31
0.0
  0
LINE
  5
83F
  8
1
 10
0.456867
 20
29.621687
 30
0.0
 11
22.456867
 21
29.621687
 31
0.0
  0
LINE
  5
840
  8
0
 10
-16.730947
 20
39.042042
 30
0.0
 11
-15.494049
 21
38.356418
 31
0.0
  0
LINE
  5
841
  8
0
 10
-12.737675
 20
28.743801
 30
0.0
 11
-15.494049
 21
38.356418
 31
0.0
  0
LINE
  5
842
  8
0
 10
-23.7314
 20
39.04027
 30
0.0
 11
-24.968363
 21
38.35461
 31
0.0
  0
LINE
  5
843
  8
0
 10
-27.72422
 20
28.743801
 30
0.0
 11
-24.968363
 21
38.35461
 31
0.0
  0
LINE
  5
844
  8
1
 10
-16.730947
 20
29.972153
 30
0.0
 11
-23.730946
 21
29.972153
 31
0.0
  0
DIMENSION
  5
89C
  8
2
  2
*D1
 10
24.234389
 20
-39.108696
 30
0.0
 11
24.234389
 21
-29.108693
 31
0.0
 70
     0
 13
20.307844
 23
-19.10869
 33
0.0
 14
20.307844
 24
-39.108696
 34
0.0
 50
90.0
  0
DIMENSION
  5
8AA
  8
2
  2
*D2
 10
20.307844
 20
-43.044977
 30
0.0
 11
8.307845
 21
-43.044977
 31
0.0
 70
     0
 13
-3.692155
 23
-39.108696
 33
0.0
 14
20.307844
 24
-39.108696
 34
0.0
  0
DIMENSION
  5
8B8
  8
2
  2
*D3
 10
-31.242064
 20
39.042042
 30
0.0
 11
-31.242064
 21
39.542042
 31
0.0
 70
     0
 13
-22.730946
 23
40.042042
 33
0.0
 14
-23.730946
 24
39.042042
 34
0.0
 50
90.0
  0
DIMENSION
  5
8C6
  8
2
  2
*D4
 10
-33.051261
 20
27.692154
 30
0.0
 11
-33.051261
 21
33.367098
 31
0.0
 70
     0
  1
11.35
 13
-23.730946
 23
39.042042
 33
0.0
 14
-23.730946
 24
27.692154
 34
0.0
 50
90.0
  0
DIMENSION
  5
8E0
  8
2
  2
*D5
 10
-12.77368
 20
25.241411
 30
0.0
 11
-13.975258
 21
24.896864
 31
0.0
 70
     1
 13
-16.102091
 23
27.77907
 33
0.0
 14
-13.698936
 24
28.468163
 34
0.0
  0
DIMENSION
  5
8EE
  8
2
  2
*D6
 10
-16.730947
 20
23.722759
 30
0.0
 11
-20.230947
 21
23.722759
 31
0.0
 70
     0
 13
-23.730946
 23
27.692154
 33
0.0
 14
-16.730947
 24
27.692154
 34
0.0
  0
DIMENSION
  5
8FE
  8
2
  2
*D7
 10
-23.730946
 20
39.042042
 30
0.0
 11
-26.235215
 21
24.851201
 31
0.0
 70
     2
 13
-27.72422
 23
28.743801
 33
0.0
 14
-24.968363
 24
38.35461
 34
0.0
 15
-23.730946
 25
29.972153
 35
0.0
 16
-27.061529
 26
24.987009
 36
0.0
  0
DIMENSION
  5
91C
  8
2
  2
*D9
 10
-12.140533
 20
26.661326
 30
0.0
 11
-10.897506
 21
26.710941
 31
0.0
 70
     1
 13
-13.698936
 23
28.468163
 33
0.0
 14
-12.737675
 24
28.743801
 34
0.0
  0
DIMENSION
  5
92A
  8
2
  2
*D10
 10
-33.716129
 20
18.561752
 30
0.0
 11
-33.716129
 21
19.061752
 31
0.0
 70
     0
 13
-25.124371
 23
19.561752
 33
0.0
 14
-25.124371
 24
18.561752
 34
0.0
 50
90.0
  0
DIMENSION
  5
938
  8
2
  2
*D11
 10
-13.124371
 20
22.630907
 30
0.0
 11
-12.054371
 21
22.630907
 31
0.0
 70
     0
 13
-14.124371
 23
18.561752
 33
0.0
 14
-13.124371
 24
18.561752
 34
0.0
  0
DIMENSION
  5
954
  8
2
  2
*D13
 10
-4.738305
 20
-0.438248
 30
0.0
 11
-4.738305
 21
9.561752
 31
0.0
 70
     0
 13
-14.124371
 23
19.561752
 33
0.0
 14
-14.124371
 24
-0.438248
 34
0.0
 50
90.0
  0
DIMENSION
  5
962
  8
2
  2
*D14
 10
-8.346291
 20
0.561752
 30
0.0
 11
-8.346291
 21
9.561752
 31
0.0
 70
     0
 13
-14.124371
 23
18.561752
 33
0.0
 14
-14.124371
 24
0.561752
 34
0.0
 50
90.0
  0
DIMENSION
  5
970
  8
2
  2
*D15
 10
-20.347592
 20
0.561752
 30
0.0
 11
-20.347592
 21
6.811753
 31
0.0
 70
     0
 13
-14.124375
 23
13.061754
 33
0.0
 14
-14.124371
 24
0.561752
 34
0.0
 50
90.0
  0
DIMENSION
  5
97A
  8
2
  2
*D16
 10
-14.124375
 20
13.061754
 30
0.0
 11
-18.877592
 21
14.924142
 31
0.0
 70
   132
 15
-28.494671
 25
17.362273
 35
0.0
 40
0.0
1001
ACAD
1000
DSTYLE
1002
{
1070
   288
1070
     1
1002
}
  0
DIMENSION
  5
988
  8
2
  2
*D17
 10
-34.285811
 20
-0.438248
 30
0.0
 11
-34.285811
 21
0.061752
 31
0.0
 70
     0
 13
-25.124371
 23
0.561752
 33
0.0
 14
-25.124371
 24
-0.438248
 34
0.0
 50
90.0
  0
DIMENSION
  5
9A4
  8
2
  2
*D19
 10
-14.124371
 20
-2.28125
 30
0.0
 11
-19.624371
 21
-2.28125
 31
0.0
 70
     0
 13
-25.124371
 23
-0.438248
 33
0.0
 14
-14.124371
 24
-0.438248
 34
0.0
  0
DIMENSION
  5
9B2
  8
2
  2
*D20
 10
-14.106042
 20
-5.280814
 30
0.0
 11
-15.583685
 21
-5.280814
 31
0.0
 70
     0
 13
-17.061329
 23
-8.314536
 33
0.0
 14
-14.106042
 24
-8.314537
 34
0.0
  0
DIMENSION
  5
9C0
  8
2
  2
*D21
 10
-37.278688
 20
-27.314535
 30
0.0
 11
-37.278688
 21
-17.314536
 31
0.0
 70
     0
 13
-28.061329
 23
-7.314536
 33
0.0
 14
-28.061329
 24
-27.314535
 34
0.0
 50
90.0
  0
DIMENSION
  5
9CE
  8
2
  2
*D22
 10
-34.100815
 20
-26.314535
 30
0.0
 11
-34.100815
 21
-17.314536
 31
0.0
 70
     0
 13
-29.061329
 23
-8.314536
 33
0.0
 14
-29.061329
 24
-26.314535
 34
0.0
 50
90.0
  0
DIMENSION
  5
9DC
  8
2
  2
*D23
 10
-28.061329
 20
-32.47357
 30
0.0
 11
-26.991329
 21
-32.47357
 31
0.0
 70
     0
 13
-29.061329
 23
-26.314535
 33
0.0
 14
-28.061329
 24
-26.314535
 34
0.0
  0
DIMENSION
  5
9EA
  8
2
  2
*D24
 10
-17.061329
 20
-30.527863
 30
0.0
 11
-22.561329
 21
-30.527863
 31
0.0
 70
     0
 13
-28.061329
 23
-27.314535
 33
0.0
 14
-17.061329
 24
-27.314535
 34
0.0
  0
DIMENSION
  5
9F8
  8
2
  2
*D25
 10
-13.061328
 20
-32.632403
 30
0.0
 11
-15.061329
 21
-32.632403
 31
0.0
 70
     0
 13
-17.061329
 23
-26.314535
 33
0.0
 14
-13.061328
 24
-26.314535
 34
0.0
  0
DIMENSION
  5
A06
  8
2
  2
*D26
 10
25.412153
 20
46.949617
 30
0.0
 11
11.456867
 21
46.949617
 31
0.0
 70
     0
 13
-2.498419
 23
29.621687
 33
0.0
 14
25.412153
 24
29.621687
 34
0.0
  0
DIMENSION
  5
A22
  8
2
  2
*D27
 10
31.781937
 20
39.121689
 30
0.0
 11
31.781937
 21
34.371688
 31
0.0
 70
     0
 13
22.456867
 23
29.621687
 33
0.0
 14
11.456867
 24
39.121689
 34
0.0
 50
90.0
  0
DIMENSION
  5
A2C
  8
2
  2
*D28
 10
11.456867
 20
24.12169
 30
0.0
 11
15.881067
 21
33.519087
 31
0.0
 70
   132
 15
19.427092
 25
36.82899
 35
0.0
 40
0.0
1001
ACAD
1000
DSTYLE
1002
{
1070
   288
1070
     1
1002
}
  0
DIMENSION
  5
A3A
  8
2
  2
*D29
 10
22.456867
 20
31.916267
 30
0.0
 11
11.456867
 21
31.916267
 31
0.0
 70
     0
 13
0.456867
 23
29.621687
 33
0.0
 14
22.456867
 24
29.621687
 34
0.0
  0
DIMENSION
  5
A48
  8
2
  2
*D30
 10
7.956867
 20
8.078305
 30
0.0
 11
4.206867
 21
8.078305
 31
0.0
 70
     0
 13
0.456867
 23
9.621687
 33
0.0
 14
7.956867
 24
13.621687
 34
0.0
  0
DIMENSION
  5
A56
  8
2
  2
*D31
 10
18.40159
 20
0.621687
 30
0.0
 11
18.40159
 21
7.121687
 31
0.0
 70
     0
 13
14.956867
 23
13.621687
 33
0.0
 14
14.956867
 24
0.621687
 34
0.0
 50
90.0
  0
DIMENSION
  5
A64
  8
2
  2
*D32
 10
14.956867
 20
17.253071
 30
0.0
 11
11.456867
 21
17.253071
 31
0.0
 70
     0
 13
7.956867
 23
13.621687
 33
0.0
 14
14.956867
 24
13.621687
 34
0.0
  0
DIMENSION
  5
A72
  8
2
  2
*D33
 10
22.456867
 20
-3.080858
 30
0.0
 11
18.706867
 21
-3.080858
 31
0.0
 70
     0
 13
14.956867
 23
0.621687
 33
0.0
 14
22.456867
 24
0.621687
 34
0.0
  0
DIMENSION
  5
A80
  8
2
  2
*D34
 10
-7.493323
 20
-11.878313
 30
0.0
 11
-7.493323
 21
-11.128313
 31
0.0
 70
     0
 13
-3.543133
 23
-10.378313
 33
0.0
 14
-3.543133
 24
-11.878313
 34
0.0
 50
90.0
  0
DIMENSION
  5
A8E
  8
2
  2
*D35
 10
-7.523231
 20
-12.878313
 30
0.0
 11
-7.523231
 21
-12.378313
 31
0.0
 70
     0
 13
-3.605633
 23
-11.878313
 33
0.0
 14
-3.543133
 24
-12.878313
 34
0.0
 50
90.0
  0
DIMENSION
  5
A9C
  8
2
  2
*D36
 10
12.956867
 20
-14.482821
 30
0.0
 11
4.706867
 21
-14.482821
 31
0.0
 70
     0
 13
-3.543133
 23
-12.878313
 33
0.0
 14
12.956867
 24
-12.878313
 34
0.0
  0
DIMENSION
  5
AAA
  8
2
  2
*D37
 10
17.456867
 20
-14.452925
 30
0.0
 11
15.206867
 21
-14.452925
 31
0.0
 70
     0
 13
12.956867
 23
-12.940813
 33
0.0
 14
17.456867
 24
-12.878313
 34
0.0
  0
DIMENSION
  5
AB8
  8
2
  2
*D38
 10
15.086999
 20
-12.878313
 30
0.0
 11
15.086999
 21
-11.878313
 31
0.0
 70
     0
 13
12.956867
 23
-10.878313
 33
0.0
 14
12.956867
 24
-12.878313
 34
0.0
 50
90.0
  0
DIMENSION
  5
AC6
  8
2
  2
*D39
 10
-3.543133
 20
-8.593242
 30
0.0
 11
-1.543133
 21
-8.593242
 31
0.0
 70
     0
 13
0.456867
 23
-10.378313
 33
0.0
 14
-3.543133
 24
-10.378313
 34
0.0
  0
DIMENSION
  5
AD4
  8
2
  2
*D40
 10
26.456867
 20
-16.186913
 30
0.0
 11
11.456867
 21
-16.186913
 31
0.0
 70
     0
 13
-3.543133
 23
-12.940813
 33
0.0
 14
26.456867
 24
-12.878313
 34
0.0
  0
DIMENSION
  5
AE2
  8
2
  2
*D41
 10
29.047903
 20
-12.878313
 30
0.0
 11
29.047903
 21
-11.628313
 31
0.0
 70
     0
 13
26.456867
 23
-10.378313
 33
0.0
 14
26.456867
 24
-12.878313
 34
0.0
 50
90.0
  0
DIMENSION
  5
AF0
  8
2
  2
*D42
 10
29.043284
 20
0.621687
 30
0.0
 11
29.043284
 21
-4.878313
 31
0.0
 70
     0
 13
22.456867
 23
-10.378313
 33
0.0
 14
22.456867
 24
0.621687
 34
0.0
 50
90.0
  0
DIMENSION
  5
AFE
  8
2
  2
*D43
 10
31.806701
 20
-10.378313
 30
0.0
 11
31.806701
 21
4.121687
 31
0.0
 70
     0
 13
22.456867
 23
18.621687
 33
0.0
 14
22.456867
 24
-10.378313
 34
0.0
 50
90.0
  0
DIMENSION
  5
B0C
  8
2
  2
*D44
 10
34.767505
 20
-10.378313
 30
0.0
 11
34.767505
 21
9.621687
 31
0.0
 70
     0
 13
22.456867
 23
29.621687
 33
0.0
 14
22.519367
 24
-10.378313
 34
0.0
 50
90.0
  0
ENDSEC
  0
EOF
